Сегодня идет свободное скачивание без начисления Download

Пакетное соглашение / Пакетная Сделка / Комплексная сделка / Package Deal / Сезон: 2 / Серии: 1 из 13 (Джонатан А. Розенбаум, Шиван Дивайн) [2014, комедия, HDTVRip] Original + Rus Sub

Ответить на тему
 
Автор
Сообщение

Omen ®

Стаж: 5 лет 7 месяцев

Сообщений: 185412

Торрент-статистика

Пост 05-Сен-2016 01:00

[Цитировать]

Пакетное соглашение / Пакетная Сделка / Комплексная сделка / Package Deal
Год выпуска: 2014
Страна: Канада
Жанр: комедия
Продолжительность: 21 мин.
Перевод: Субтитры
Режиссёр: Джонатан А. Розенбаум, Шиван Дивайн
В ролях: Рендал Эдвардс (Убийство) , Джулия Вот (Project: SERA, Стервозные штучки) , Харланд Уильямс,
Джей Мэлоун, Джилл Моррисон и другие.
Описание: История об адвокате Дэнни который считает, что нашел свою вторую половинку, и о его старших братьях, которые часто вмешиваются в его личную жизнь.
Доп. информация: перевод notabenoid: Maxjoker, Oxania, silenico,
Solo123, JessieCourner,Arbre
Сэмпл: https://www.sendspace.com/file/v00lhv
Качество: HDTVRip
Формат: AVI
Видео: 720x404 (16:9), 23.976 fps, XviD build 67, 1 503 kbps avg, 0.216 bit/pixel
Аудио: 48 kHz, MPEG Layer 3, 2 ch, 192.00 kbps avg
Субтитры: hardsub (вшитые)

MediaInfo

General
General
Complete name : C:\Package.Deal.S02\Package.Deal.S02E01.HDTV.x264-2HD.avi
Format : AVI
Format/Info : Audio Video Interleave
File size : 265 MiB
Duration : 21 min
Overall bit rate : 1 705 kb/s
Video
ID : 0
Format : MPEG-4 Visual
Format profile : Advanced Simple@L5
Format settings, BVOP : 2
Format settings, QPel : No
Format settings, GMC : No warppoints
Format settings, Matrix : Default (H.263)
Codec ID : XVID
Codec ID/Hint : XviD
Duration : 21 min
Bit rate : 1 503 kb/s
Width : 720 pixels
Height : 404 pixels
Display aspect ratio : 16:9
Frame rate : 23.976 (24000/1001) FPS
Color space : YUV
Chroma subsampling : 4:2:0
Bit depth : 8 bits
Scan type : Progressive
Compression mode : Lossy
Bits/(Pixel*Frame) : 0.216
Stream size : 233 MiB (88%)
Writing library : XviD 67
Audio
ID : 1
Format : MPEG Audio
Format version : Version 1
Format profile : Layer 3
Mode : Joint stereo
Mode extension : MS Stereo
Codec ID : 55
Codec ID/Hint : MP3
Duration : 21 min
Bit rate mode : Constant
Bit rate : 192 kb/s
Channel(s) : 2 channels
Sampling rate : 48.0 kHz
Compression mode : Lossy
Stream size : 29.8 MiB (11%)
Alignment : Split accross interleaves
Interleave, duration : 42 ms (1.00 video frame)
Interleave, preload duratio : 500 ms
Writing library : LAME3.99.5

Скриншоты

Пример субтитров:

скрытый текст

17
00:00:47,837 --> 00:00:50,505
Смешное стало грустным за рекордно короткое время.
18
00:00:52,909 --> 00:00:53,976
Что думаешь?
19
00:00:54,044 --> 00:00:55,110
Я попрошу сверху Клуни.
20
00:00:55,178 --> 00:00:57,046
а по бокам Ди Каприо.
21
00:00:57,113 --> 00:00:59,514
Жаль, что он сделает тебе Маколея Калкина.
22
00:01:00,683 --> 00:01:01,916
Я все еще не могу поверить,
23
00:01:01,984 --> 00:01:03,485
что вы парни вместе стрижётесь.
24
00:01:03,553 --> 00:01:05,620
Это еще почему, Судья Судейсон?
25
00:01:05,688 --> 00:01:06,921
О, я не осуждаю.
26
00:01:06,989 --> 00:01:08,623
Я просто думаю, что вы, ребята, немного...
27
00:01:08,691 --> 00:01:10,692
Чокнутые? Странные? Нездоровые? Мне продолжать?
28
00:01:12,027 --> 00:01:13,295
Послушай, мы посещаем Рино
29
00:01:13,362 --> 00:01:14,529
ещё с детства.
30
00:01:14,597 --> 00:01:15,830
Это семейная традиция.
31
00:01:15,898 --> 00:01:18,066
- Это как любить хоккей.
- Верно! Или ходить по магазинам нижнего белья.
32
00:01:18,133 --> 00:01:19,634
Парни, вы и в магазины нижнего белья ходите вместе?
33
00:01:19,702 --> 00:01:20,902
Не только нижнего белья.
34
00:01:20,970 --> 00:01:24,405
Мы покупаем носки.
Снимаем лифчики с манекенов.
35
00:01:24,473 --> 00:01:25,873
И вот так целый день.
36
00:01:25,941 --> 00:01:27,742
И для протокола,
37
00:01:27,810 --> 00:01:30,511
мы также делаем много вещей самостоятельно.
38
00:01:30,579 --> 00:01:31,746
Такие как?
Вне форума [Профиль] [ЛС]
Похожие темы
Форум Тема Автор Торрент Отв. Посл. сообщение
./templates/default/images/folder_dl.gif Обучающее видео [Max Twain] УЧЕБНЫЕ ПАКЕТЫ ПО РЕТУШИ ОТ MAX TWAIN. ВИДЕОКУРСЫ. 2014 [2014, RUS] Omen
1 | 0

0 | 1591

27

2014-08-15 14:01
Omen Последнее
./templates/default/images/folder_dl.gif Обучающее видео Роман Ерин | Гитарная революция. Полный пакет (2015) CamRip [H.264/720p] Omen
1 | 0

0 | 913

28

2015-10-11 23:55
Omen Последнее
Показать сообщения:    
Ответить на тему

Текущее время: Сегодня 19:45

Часовой пояс: GMT + 3



Вы не можете начинать темы
Вы не можете отвечать на сообщения
Вы не можете редактировать свои сообщения
Вы не можете удалять свои сообщения
Вы не можете голосовать в опросах
Вы не можете прикреплять файлы к сообщениям
Вы не можете скачивать файлы