Сегодня идет свободное скачивание без начисления Download

Дэдвуд / Дедвуд / Deadwood / Сезон: 2 / Серии: 1-12 из 12 (Эдвард Бьянчи, Даниэль Минахан, Грегг Финберг) [2005, США, драма, криминальный, вестерн, BDRip 720p] MVO (РЕН ТВ) + Original

Ответить на тему
 
Автор
Сообщение

Omen ®

Стаж: 5 лет 11 месяцев

Сообщений: 184329

Торрент-статистика

Пост 05-Сен-2016 01:00

[Цитировать]

Дэдвуд / Дедвуд / Deadwood
Год выпуска: 2005
Страна: США
Жанр: драма, криминальный, вестерн
Продолжительность: ~48 мин
Перевод: Профессиональный (многоголосый закадровый) РЕН ТВ
Создатель сериала: Дэвид Милч
Режиссёры: Эдвард Бьянчи, Даниэль Минахан, Грегг Финберг, Стив Шилл, Алан Тейлор, Майкл Альмерейда, Тимоти Ван Паттен
В ролях: Тимоти Олифант, Иэн МакШейн, Молли Паркер, Брэд Дуриф, У. Эрл Браун, Джон Хоукс, Паула Малкомсон, Дэйтон Калли, Леон Риппи, Уильям Сэндерсон, Джим Бивер, Ким Диккенс, Анна Ганн, Элис Крайдж
Описание: 1876 год. Городок Дедвуд в Южной Дакоте - настоящая выгребная яма, в которой собирается преступный сброд со всей Америки. Преступления и коррупция настолько прочно вошли в жизнь обитателей Дедвуда, что на них практически не обращают внимания. Убийства привлекают меньше внимания, чем танцы девочек в местном салуне.
Доп. информация: Новая озвучка сериала! Рен ТВ слегка порезал показ - в 1, 7 и 8 сериях есть вставки Сербина
Сэмпл: http://multi-up.com/1116574
Качество: BDRip 720p
Контейнер: MKV
Видео: x264, 1280х720 (1.78:1), 25 fps, ~5500 kbps
Аудио: Russian: 48 kHz, AC3, 2/0 (L,R) ch, 192 kbps Многоголосый закадровый, РЕН ТВ
Аудио 2: English: 48 kHz, AC3, 3/2 (L,C,R,l,r) + LFE ch, 448 kbps
Субтитры: English
[url=viewtopic.php?t=5273191]Сезон 1[/url]

Список серий

1. A Lie Agreed Upon: Part I
2. A Lie Agreed Upon: Part II
3. New Money
4. Requiem for a Gleet
5. Complications
6. Something Very Expensive
7. E.B. Was Left Out
8. Childish Things
9. Amalgamation and Capital
10. Advances, None Miraculous
11. The Whores Can Come
12. Boy-the-Earth-Talks-To

MediaInfo

Общее
Уникальный идентификатор : 206051667918503705729431423802310167372 (0x9B041B946C80EFAD8C5411AD5DBC8B4C)
Полное имя : F:\Downloads\Deadwood S2 BDRip 720p Ren-TV\01 A Lie Agreed Upon Part I.mkv
Формат : Matroska
Версия формата : Version 4 / Version 2
Размер файла : 2,09 Гбайт
Продолжительность : 47 м. 0 с.
Режим общего битрейта : Переменный
Общий поток : 6377 Кбит/сек
Дата кодирования : UTC 2016-09-03 10:11:16
Программа кодирования : mkvmerge v9.4.0 ('Knurl') 64bit
Библиотека кодирования : libebml v1.3.4 + libmatroska v1.4.5
Видео
Идентификатор : 1
Формат : AVC
Формат/Информация : Advanced Video Codec
Профиль формата : High@L4.1
Параметр CABAC формата : Да
Параметр ReFrames формата : 9 кадров
Идентификатор кодека : V_MPEG4/ISO/AVC
Продолжительность : 47 м. 0 с.
Вид битрейта : Переменный
Битрейт : 5500 Кбит/сек
Максимальный битрейт : 40,0 Мбит/сек
Ширина : 1280 пикселей
Высота : 720 пикселей
Соотношение сторон : 16:9
Режим частоты кадров : Постоянный
Частота кадров : 25,000 кадров/сек
Цветовое пространство : YUV
Субдискретизация насыщенности : 4:2:0
Битовая глубина : 8 бит
Тип развёртки : Прогрессивная
Бит/(Пиксели*Кадры) : 0.239
Размер потока : 1,88 Гбайт (90%)
Библиотека кодирования : x264 core 107 r1772 c9dad9e
Настройки программы : cabac=1 / ref=9 / deblock=1:-3:-3 / analyse=0x3:0x133 / me=umh / subme=10 / psy=1 / psy_rd=1.00:0.00 / mixed_ref=1 / me_range=24 / chroma_me=1 / trellis=2 / 8x8dct=1 / cqm=0 / deadzone=21,11 / fast_pskip=0 / chroma_qp_offset=-2 / threads=6 / sliced_threads=0 / nr=0 / decimate=0 / interlaced=0 / constrained_intra=0 / bframes=6 / b_pyramid=2 / b_adapt=2 / b_bias=0 / direct=3 / weightb=1 / open_gop=0 / weightp=2 / keyint=250 / keyint_min=23 / scenecut=40 / intra_refresh=0 / rc_lookahead=60 / rc=2pass / mbtree=1 / bitrate=5500 / ratetol=1.0 / qcomp=0.80 / qpmin=10 / qpmax=51 / qpstep=4 / cplxblur=20.0 / qblur=0.5 / vbv_maxrate=40000 / vbv_bufsize=30000 / ip_ratio=1.40 / aq=1:0.70 / nal_hrd=non
Default : Да
Forced : Нет
Аудио #1
Идентификатор : 2
Формат : AC-3
Формат/Информация : Audio Coding 3
Расширение режима : CM (complete main)
Параметр Endianness формата : Big
Идентификатор кодека : A_AC3
Продолжительность : 47 м. 0 с.
Вид битрейта : Постоянный
Битрейт : 192 Кбит/сек
Каналы : 2 канала
Расположение каналов : Front: L R
Частота : 48,0 КГц
Частота кадров : 31,250 кадров/сек (1536 spf)
Метод сжатия : С потерями
Размер потока : 64,6 Мбайт (3%)
Заголовок : REN-TV
Язык : Russian
Default : Да
Forced : Нет
Аудио #2
Идентификатор : 3
Формат : AC-3
Формат/Информация : Audio Coding 3
Расширение режима : CM (complete main)
Параметр Endianness формата : Big
Идентификатор кодека : A_AC3
Продолжительность : 47 м. 0 с.
Вид битрейта : Постоянный
Битрейт : 448 Кбит/сек
Каналы : 6 каналов
Расположение каналов : Front: L C R, Side: L R, LFE
Частота : 48,0 КГц
Частота кадров : 31,250 кадров/сек (1536 spf)
Метод сжатия : С потерями
Размер потока : 151 Мбайт (7%)
Заголовок : ENG
Язык : English
Default : Нет
Forced : Нет
Текст
Идентификатор : 4
Формат : UTF-8
Идентификатор кодека : S_TEXT/UTF8
Идентификатор кодека/Информация : UTF-8 Plain Text
Продолжительность : 43 м. 8 с.
Битрейт : 75 бит/сек
Count of elements : 706
Размер потока : 24,0 Кбайт (0%)
Язык : English
Default : Нет
Forced : Нет

Скриншоты

Вне форума [Профиль] [ЛС]
Показать сообщения:    
Ответить на тему

Текущее время: Сегодня 07:54

Часовой пояс: GMT + 3



Вы не можете начинать темы
Вы не можете отвечать на сообщения
Вы не можете редактировать свои сообщения
Вы не можете удалять свои сообщения
Вы не можете голосовать в опросах
Вы не можете прикреплять файлы к сообщениям
Вы не можете скачивать файлы