Сегодня идет свободное скачивание без начисления Download

Юная / Yonger / Сезон: 2 / Серии: 1 из 12 (Даррен Стар) [2016, комедия, WEB-DLRip] MVO (Flux-Team)

Ответить на тему
 
Автор
Сообщение

Omen ®

Стаж: 5 лет 6 месяцев

Сообщений: 186946

Торрент-статистика

Пост 03-Сен-2016 01:00

[Цитировать]

Юная / Younger Год выпуска: 2016
Страна: США
Жанр: комедия
Продолжительность: ~ 00:22:00-Перевод: Любительский (многоголосый закадровый) Flux-Team
Текст читали: Julie, Siviel, Natemily, Tomas- -Режиссёр: Даррен Стар
В ролях: Саттон Фостер, Мириам Шор, Деби Мейзар, Хилари Дафф, Нико Торторелла и др.
Описание: 40-летняя разведёнка и мать-одиночка Лайза пытается найти работу. Однако выясняется, что для женщины её возраста это не так-то просто. Тогда она просто слегка подправляет свой имидж и выдает себя за 26-летнюю.-Сэмпл--Качество: WEB-DLRip
Формат: AVI
Видео: 720x400 (1.80:1), 23.976 fps, XviD build 50 ~1461 kbps avg, 0.21 bit/pixel
Аудио ru: 44.100 kHz, MPEG Layer 3, 2 ch, ~192.00 kbps avg
Аудио en: 44.100 kHz, MPEG Layer 3, 2 ch, ~192.00 kbps avg
Субтитры: отсутствуют-

Список серий

Эпизод 1
-

MediaInfo

General
Complete name : E:\Younger\Younger. Season 2. Flux-Team\Younger.s02e01.rus.Flux-Team.tv.avi
Format : AVI
Format/Info : Audio Video Interleave
File size : 278 MiB
Duration : 20mn 55s
Overall bit rate : 1 860 Kbps
Writing application : VirtualDubMod 1.5.10.3 (build 2550/release)
Writing library : VirtualDubMod build 2550/release
Video
ID : 0
Format : MPEG-4 Visual
Format profile : Advanced Simple@L5
Format settings, BVOP : 2
Format settings, QPel : No
Format settings, GMC : No warppoints
Format settings, Matrix : Default (MPEG)
Codec ID : XVID
Codec ID/Hint : XviD
Duration : 20mn 55s
Bit rate : 1 462 Kbps
Width : 720 pixels
Height : 400 pixels
Display aspect ratio : 16:9
Frame rate : 23.976 fps
Color space : YUV
Chroma subsampling : 4:2:0
Bit depth : 8 bits
Scan type : Progressive
Compression mode : Lossy
Bits/(Pixel*Frame) : 0.212
Stream size : 219 MiB (79%)
Writing library : XviD 1.2.1 (UTC 2008-12-04)
Audio #1
ID : 1
Format : MPEG Audio
Format version : Version 1
Format profile : Layer 3
Codec ID : 55
Codec ID/Hint : MP3
Duration : 20mn 55s
Bit rate mode : Constant
Bit rate : 192 Kbps
Channel(s) : 2 channels
Sampling rate : 44.1 KHz
Compression mode : Lossy
Stream size : 28.7 MiB (10%)
Alignment : Split accross interleaves
Interleave, duration : 42 ms (1.00 video frame)
Interleave, preload duration : 500 ms
Audio #2
ID : 2
Format : MPEG Audio
Format version : Version 1
Format profile : Layer 3
Codec ID : 55
Codec ID/Hint : MP3
Duration : 20mn 55s
Bit rate mode : Constant
Bit rate : 192 Kbps
Channel(s) : 2 channels
Sampling rate : 44.1 KHz
Compression mode : Lossy
Stream size : 28.7 MiB (10%)
Alignment : Split accross interleaves
Interleave, duration : 42 ms (1.00 video frame)
Interleave, preload duration : 500 ms

Скриншоты

Внимание! Раздача ведётся путём добавления новых серий

Внимание! Раздача ведётся путём добавления новых серий; при каждом добавлении создаётся новый торрент. Чтобы начать докачку новой серии, пользователям необходимо сделать следующее:
(1) остановить скачивание,
(2) удалить старый торрент у себя из клиента (старые серии удалять не надо),
(3) скачать новый торрент и запустить его у себя в клиенте вместо старого, при этом указать клиенту путь в старую папку куда и должно происходить скачивание новых серий.
Ваш клиент при этом должен произвести хеширование (проверку) старой папки (если не производит сам - помогите ему сделать это), и будет докачивать только те серии которых у вас ещё нет. Старые серии при этом не удаляются, а продолжают раздаваться!
Eсли вы уже удалили старые серии, то предотвратить повторную закачку старых серий можно, отжав галочку в соответствующих местах при запуске нового торрента. По возможности, желательно не удалять старые серии как можно дольше чтобы релизёр не столько продолжал раздавать старые серии, а смог сконцентрироваться на новых.
Вне форума [Профиль] [ЛС]
Показать сообщения:    
Ответить на тему

Текущее время: Сегодня 14:36

Часовой пояс: GMT + 3



Вы не можете начинать темы
Вы не можете отвечать на сообщения
Вы не можете редактировать свои сообщения
Вы не можете удалять свои сообщения
Вы не можете голосовать в опросах
Вы не можете прикреплять файлы к сообщениям
Вы не можете скачивать файлы