Сегодня идет свободное скачивание без начисления Download

Жан-Клод Ван Джонсон / Jean-Claude Van Johnson / Сезон: 1 / Серии: 1 (Питер Атенсио / Peter Atencio) [2016, США, комедия, WEB-DL 1080p] MVO (NewStudio) + Original

Ответить на тему
 
Автор
Сообщение

Omen ®

Стаж: 5 лет 6 месяцев

Сообщений: 186946

Торрент-статистика

Пост 03-Сен-2016 01:00

[Цитировать]

Жан-Клод Ван Джонсон / Jean-Claude Van Johnson- Год выпуска: 2016
Страна: США
Жанр: комедия
Продолжительность: ~00:30:00-Перевод: Профессиональный (многоголосый закадровый) | NewStudio-Режиссёр: Питер Атенсио / Peter Atencio
В ролях: Жан-Клод Ван Дамм, Кэт Фостер, Мойзес Ариас, Филисия Рашад, Бар Пали, Тим Пепер, Дерен Лерой, Кевин Майкл Уолш, Тейт Флетчер, Стэйси Дейнджер-Описание: Создатели нового сериала «Жан-Клод Ван Джонсон» пытаются убедить зрителя в том, что на самом деле под всем известной фамилией Ван Дамм скрывается спецагент по фамилии Джонсон, который использует внешний вид актера исключительно для работы под прикрытием и успешного выполнения различных секретных операций. А свое очередное задание Джонсон выполняет, снимаясь в необычной версии «Приключений Гекельберри Финна».-- -В НЕСКОЛЬКИХ МЕСТАХ ПРИСУТСТВУЕТ НЕНОРМАТИВНАЯ ЛЕКСИКА!-Качество: WEB-DL 1080p
Контейнер: MKV
Видео: 1920x1080, 23.976 fps, MPEG-4 AVC, ~3484 kbps avg, 0.070 bit/pixel
Аудио: 48 kHz, AC3, 3/2 (L,C,R,l,r) + LFE ch, ~384.00 kbps avg | NewStudio
Аудио: 48 kHz, E-AC-3, 3/2 (L,C,R,l,r) + LFE ch, ~640.00 kbps avg
Субтитры: отсутствуют-

Список серий

00. Пилотный выпуск / Pilot
01.
02.
03.
-

MediaInfo

ОбщееУникальный идентификатор : 242537088086563605073148141353965731783 (0xB676F1ADB8DF504FAFDFF44FAA503FC7)Полное имя : E:\Movies\Jean-Claude Van Johnson (Season 1) 1080p WEB-DL\Jean-Claude.Van.Johnson.s01e00.WEBDL.1080p.NewStudio.TV.mkvФормат : MatroskaВерсия формата : Version 4 / Version 2Размер файла : 978 МбайтПродолжительность : 30 м.Режим общего битрейта : ПеременныйОбщий поток : 4510 Кбит/секДата кодирования : UTC 2016-09-02 00:58:25Программа кодирования : mkvmerge v9.4.0 ('Knurl') 32bitБиблиотека кодирования : libebml v1.3.4 + libmatroska v1.4.5
ВидеоИдентификатор : 1Формат : AVCФормат/Информация : Advanced Video CodecПрофиль формата : High@L4Параметр CABAC формата : ДаПараметр ReFrames формата : 4 кадраИдентификатор кодека : V_MPEG4/ISO/AVCПродолжительность : 30 м.Вид битрейта : ПеременныйБитрейт : 3484 Кбит/секМаксимальный битрейт : 15,0 Мбит/секШирина : 1920 пикселейВысота : 1080 пикселейСоотношение сторон : 16:9Режим частоты кадров : ПостоянныйЧастота кадров : 23,976 (24000/1001) кадра/секЦветовое пространство : YUVСубдискретизация насыщенности : 4:2:0Битовая глубина : 8 битТип развёртки : ПрогрессивнаяБит/(Пиксели*Кадры) : 0.070Размер потока : 756 Мбайт (77%)Default : ДаForced : НетЦветовой диапазон : LimitedОсновные цвета : BT.709Характеристики трансфера : BT.709Коэффициенты матрицы : BT.709
Аудио #1Идентификатор : 2Формат : AC-3Формат/Информация : Audio Coding 3Расширение режима : CM (complete main)Параметр Endianness формата : BigИдентификатор кодека : A_AC3Продолжительность : 30 м.Вид битрейта : ПостоянныйБитрейт : 384 Кбит/секКаналы : 6 каналовРасположение каналов : Front: L C R, Side: L R, LFEЧастота : 48,0 КГцЧастота кадров : 31,250 кадров/сек (1536 spf)Метод сжатия : С потерямиРазмер потока : 83,3 Мбайт (9%)Язык : RussianDefault : ДаForced : Нет
Аудио #2Идентификатор : 3Формат : E-AC-3Формат/Информация : Audio Coding 3Параметр Endianness формата : BigИдентификатор кодека : A_EAC3Продолжительность : 30 м.Вид битрейта : ПостоянныйБитрейт : 640 Кбит/секКаналы : 6 каналовРасположение каналов : Front: L C R, Side: L R, LFEЧастота : 48,0 КГцЧастота кадров : 187,500 кадров/сек (256 spf)Метод сжатия : С потерямиЗадержка видео : 18 мс.Размер потока : 139 Мбайт (14%)Язык : EnglishDefault : НетForced : Нет
-

Скриншоты

-

Внимание! Раздача ведётся путём добавления новых серий

Внимание! Раздача ведётся путём добавления новых серий; при каждом добавлении создаётся новый торрент. Чтобы начать докачку новой серии, пользователям необходимо сделать следующее:
(1) остановить скачивание,
(2) удалить старый торрент у себя из клиента (старые серии удалять не надо),
(3) скачать новый торрент и запустить его у себя в клиенте вместо старого, при этом указать клиенту путь в старую папку куда и должно происходить скачивание новых серий.
Ваш клиент при этом должен произвести хеширование (проверку) старой папки (если не производит сам - помогите ему сделать это), и будет докачивать только те серии которых у вас ещё нет. Старые серии при этом не удаляются, а продолжают раздаваться!
Eсли вы уже удалили старые серии, то предотвратить повторную закачку старых серий можно, отжав галочку в соответствующих местах при запуске нового торрента. По возможности, желательно не удалять старые серии как можно дольше чтобы релизёр не столько продолжал раздавать старые серии, а смог сконцентрироваться на новых.
-
Вне форума [Профиль] [ЛС]
Показать сообщения:    
Ответить на тему

Текущее время: Сегодня 17:25

Часовой пояс: GMT + 3



Вы не можете начинать темы
Вы не можете отвечать на сообщения
Вы не можете редактировать свои сообщения
Вы не можете удалять свои сообщения
Вы не можете голосовать в опросах
Вы не можете прикреплять файлы к сообщениям
Вы не можете скачивать файлы