Сегодня идет свободное скачивание без начисления Download

Арабелла возвращается: Румбурак — король Страны Сказок / Arabela se vrací: Rumburak králem Ríse pohádek / Сезон: 2 / Серии: 1-26 из 26 (Вацлав Ворличек / Václav Vorlíček) [1993, Сказка, семейное кино, DVDRemux] MVO

Ответить на тему
 
Автор
Сообщение

Omen ®

Стаж: 5 лет 9 месяцев

Сообщений: 184433

Торрент-статистика

Пост 02-Сен-2016 01:01

[Цитировать]

Арабелла возвращается: Румбурак — король Страны Сказок / Arabela se vrací: Rumburak králem Ríse pohádek
Год выпуска: 1993
Страна: Чехия, Германия
Жанр: Сказка, семейное кино
Продолжительность: 26 x ~30 мин
Перевод: Профессиональный (многоголосый закадровый)
Режиссёр: Вацлав Ворличек / Václav Vorlíček
В ролях:
Мирослава Шафранкова / Miroslava Šafránková — принцесса Арабелла
Владимир Длоуги / Vladimír Dlouhý — Пётр Майер
Стелла Зазворкова / Stella Zázvorková — пани Майерова
Дагмар Патрасова / Dagmar Patrasová — принцесса Ксения
Мариан Лабуда / Marián Labuda — пан Папп
Иржи Лабус / Jiří Lábus — Румбурак
Властимил Бродский / Vlastimil Brodský — Гиацинт, король Страны сказок
Яна Брейхова / Jana Brejchová — королева Страны сказок
Франтишек Филиповский / František Filipovský — чёрт Блекота
Ива Янжурова / Iva Janžurová — пани Блекотова
Петр Нарожны / Petr Nárožný — Карел
Павел Зедничек / Pavel Zedníček — Гиацинт
Павел Новы / Pavel Nový — Фантомас
Вацлав Штекл / Václav Štekl — пан Помпо
Ондржей Кепка / Ondřej Kepka — Гонза Майер
Гана Шевчикова / Hana Ševčíková — Марженка Германова
Иржи Совак / Jiří Sovák — волшебник Теофил Виго
Олдржих Визнер / Oldřich Vízner — принц Виллибальд
Яна Кимлова / Jana Kimlová — Наталка
Яна Андресикова / Jana Andresiková — пани Чéрна
Матоуш Соукенка / Matouš Soukénka — принц Фредди
Описание: Арабела и Петр уже десять лет живут вместе. И у них есть всё для счастья, кроме ребёнка, которого у супругов пока нет. Гонзик и Марженка стали студентами. Детьми они побывали в стране сказок. И это повлияло на выбор профессии. Они изучают фольклористику и народную словесность т.е. сказки. Они не знают что царству сказок грозит большая опасность. Над страной сказок собираются чёрные тучи. Из страны великанов, за свои вегетарианские наклонности, был изгнан молодой великан Балибул. Который в надежде научиться есть людей, поселился вблизи королевского замка, где об этом пока никто не подозревает. Король и королева готовятся навестить Арабелу, с помощью волшебного плаща. Обо все этом, стало известно, сидящему в тюрьме Остроглазу. Он понимает, что великан будет каждый день требовать человеческую жертву, как это делает семиглавый змей. И что его, как арестанта, отдадут первым. Поэтому он бежит из тюрьмы, завладев чудесным плащом, и улетает в мир людей.
Доп. информация: Раздача сделана мультиплексирования DVD в MKV без потери качества с добавлением русской озвучки.

Интересный факт

Вместо актрисы Яны Надьёвой (Jana Brejchová) исполнившей роль принцессы Арабеллы в сериале 1980 года, в главной роли снималась актриса Мирослава Шафранкова (Miroslava Šafránková), которой на момент съёмок было несколько за 30.
Качество: DVDRemux
Формат: MKV
Видео: PAL MPEG2, 576i50 (4:3) 25fps 8000kbps CBR
Аудио: AC3, Russian, 2.0 channels, 192kbps, 48kHz
Аудио 2: AC3, Czech, 2.0 channels, 256kbps, 48kHz
Субтитры: VobSub, Czech

Список серий

01. Помогите, за горой великан.
02. Роковое гадание.
03. Румбурак летит на Пултанеллу.
04. Арафон.
05. Румбурак в яблочном саду.
06. Роковое яблоко.
07. Гадание исполняется.
08. Папаша, у вас двойня!.
09. Западня для Роксаны.
10. Научная экспедиция в страну сказок.
11. Марженка и великан.
12. Роксана снова на пастбище.
13. Шанс для Петра.
14. Фиктивный брак.
15. Король без подданных.
16. Троица вступает в бой.
17. Румбурак №2.
18. Поддельный пан Папп.
19. Троица снова вместе.
20. Марженка на виселице.
21. Румбурак - владыка Пултанеллы.
22. Чемоданчик в руках нечистого.
23. Борьба за Пултанеллу.
24. Испытательный полёт.
25. Румбурак против Фантомаса.
26. Декан меняет мнение.

MediaInfo на примере одного файла (остальные аналогичные)

Уникальный идентификатор : 192172933910853099179564007849792073379 (0x90932929A98BF888AAF1EF07392F6EA3)
Полное имя : 01. Помогите, за горой великан [RU CS - CS] (1993).mkv
Формат : Matroska
Версия формата : Version 4 / Version 2
Размер файла : 1,65 Гбайт
Продолжительность : 28 м.
Общий поток : 8399 Кбит/сек
Дата кодирования : UTC 2016-08-31 16:37:38
Программа кодирования : mkvmerge v8.5.2 ('Crosses') 64bit
Библиотека кодирования : libebml v1.3.3 + libmatroska v1.4.4
Видео
Идентификатор : 1
Формат : MPEG Video
Версия формата : Version 2
Профиль формата : Main@Main
Параметр BVOP формата : Да
Параметр матрицы формата : Выборочная
Параметр GOP формата : M=3, N=15
Структура изображения : Frame
Идентификатор кодека : V_MPEG2
Идентификатор кодека/Информация : MPEG 1 or 2 Video
Продолжительность : 28 м.
Битрейт : 8000 Кбит/сек
Ширина : 720 пикселей
Высота : 576 пикселей
Соотношение сторон : 4:3
Режим частоты кадров : Постоянный
Частота кадров : 25,000 кадров/сек
Стандарт вещания : PAL
Цветовое пространство : YUV
Субдискретизация насыщенности : 4:2:0
Битовая глубина : 8 бит
Тип развёртки : Чересстрочная
Порядок развёртки : Верхнее поле первое
Метод сжатия : С потерями
Бит/(Пиксели*Кадры) : 0.772
Временной код первого кадра : 00:00:03:04
Оригинал временного кода : Group of pictures header
GOP, открыто/закрыто : Закрыто
Размер потока : 1,56 Гбайт (95%)
Default : Да
Forced : Нет
Аудио #1
Идентификатор : 2
Формат : AC-3
Формат/Информация : Audio Coding 3
Расширение режима : CM (complete main)
Параметр Endianness формата : Big
Идентификатор кодека : A_AC3
Продолжительность : 28 м.
Вид битрейта : Постоянный
Битрейт : 192 Кбит/сек
Каналы : 2 канала
Расположение каналов : Front: L R
Частота : 48,0 КГц
Частота кадров : 31,250 кадров/сек (1536 spf)
Метод сжатия : С потерями
Размер потока : 38,6 Мбайт (2%)
Язык : Russian
Default : Да
Forced : Нет
Аудио #2
Идентификатор : 3
Формат : AC-3
Формат/Информация : Audio Coding 3
Расширение режима : CM (complete main)
Параметр Endianness формата : Big
Идентификатор кодека : A_AC3
Продолжительность : 28 м.
Вид битрейта : Постоянный
Битрейт : 256 Кбит/сек
Каналы : 2 канала
Расположение каналов : Front: L R
Частота : 48,0 КГц
Частота кадров : 31,250 кадров/сек (1536 spf)
Метод сжатия : С потерями
Размер потока : 51,6 Мбайт (3%)
Язык : Czech
Default : Нет
Forced : Нет
Текст
Идентификатор : 4
Формат : VobSub
Режим смешивания : zlib
Идентификатор кодека : S_VOBSUB
Идентификатор кодека/Информация : Picture based subtitle format used on DVDs
Продолжительность : 25 м.
Битрейт : 2107 бит/сек
Count of elements : 216
Размер потока : 397 Кбайт (0%)
Язык : Czech
Default : Да
Forced : Нет
Вне форума [Профиль] [ЛС]
Показать сообщения:    
Ответить на тему

Текущее время: Сегодня 16:41

Часовой пояс: GMT + 3



Вы не можете начинать темы
Вы не можете отвечать на сообщения
Вы не можете редактировать свои сообщения
Вы не можете удалять свои сообщения
Вы не можете голосовать в опросах
Вы не можете прикреплять файлы к сообщениям
Вы не можете скачивать файлы