Today is a free download without charge Download

(Garage Rock, Rockabilly, Psychobilly, Pop Rock) [CD] VA - Enjoy The Greeks II - 2006, FLAC (tracks+.cue), lossless

Reply to topic
 
Author
Message

Omen ®

Longevity: 8 years 5 months

Posts: 181087

Торрент-статистика

Post 02-Sep-2016 01:00

[Quote]

Enjoy The Greeks II
Жанр: Garage Rock, Rockabilly, Psychobilly, Pop Rock
Носитель: CD
Страна-производитель диска (релиза): Greece
Год издания: 2006
Издатель (лейбл): On Stage Records
Номер по каталогу: OSRPR 002, RR 041
Аудиокодек: FLAC (*.flac)
Тип рипа: tracks+.cue
Битрейт аудио: lossless
Продолжительность: 52:04
Источник (релизер): BozMozzis
Наличие сканов в содержимом раздачи: нет
Треклист:
01. Last Drive* Midnite Hop
02. The Frantic V: Treat Me Kind
03. The Bullets: Little Angel
04 . The Rockets: Because
05. The Teardrops: I Cry
06. Yesterday's Thoughts: I Don't Love You
07. The Ducky Boys: Really Killing Me
08. The Psykicks: Dark Side
09. Al. Perros & The Lone Stars: Betty Page
10. George & The Hustlers: Thoughts Of Regret
11. Mod Factor: Polymorphously Perverted
12. The Meanie Geanies: Lil' Red Ridin' Hood
13. Breathless: What To Do
14. The Overtones: The Bag We're In
15. Teddy Boys From The Crypt: Why ?
16. Unknown Passage: Shame On You
17. Purple Overdose 2008 Old View

Лог создания рипа

Exact Audio Copy V1.0 beta 3 from 29. August 2011
EAC extraction logfile from 27. September 2014, 6:22
Various Artists / Enjoy The Greeks II
Used drive : HL-DT-STDVDRAM GH22NS50 Adapter: 4 ID: 0
Read mode : SecureUtilize accurate stream : YesDefeat audio cache : YesMake use of C2 pointers : Yes
Read offset correction : 667Overread into Lead-In and Lead-Out : NoFill up missing offset samples with silence : YesDelete leading and trailing silent blocks : NoNull samples used in CRC calculations : YesUsed interface : Native Win32 interface for Win NT & 2000Gap handling : Appended to previous track
Used output format : User Defined EncoderSelected bitrate : 896 kBit/sQuality : HighAdd ID3 tag : NoCommand line compressor : C:\Program Files (x86)\Exact Audio Copy\FLAC\FLAC.EXEAdditional command line options : -8 -V -T "ARTIST=%artist%" -T "TITLE=%title%" -T "ALBUM=%albumtitle%" -T "DATE=%year%" -T "TRACKNUMBER=%tracknr%" -T "GENRE=%genre%" -T "PERFORMER=%albuminterpret%" -T "COMPOSER=%composer%" %haslyrics%--tag-from-file=LYRICS="%lyricsfile%"%haslyrics% -T "ALBUMARTIST=%albumartist%" -T "DISCNUMBER=%cdnumber%" -T "TOTALDISCS=%totalcds%" -T "TOTALTRACKS=%numtracks%" -T "COMMENT=%comment%" %source% -o %dest%
TOC of the extracted CD
Track | Start | Length | Start sector | End sector --------------------------------------------------------- 1 | 0:00.00 | 2:19.68 | 0 | 10492 2 | 2:19.68 | 2:04.36 | 10493 | 19828 3 | 4:24.29 | 3:53.31 | 19829 | 37334 4 | 8:17.60 | 2:30.36 | 37335 | 48620 5 | 10:48.21 | 3:40.74 | 48621 | 65194 6 | 14:29.20 | 2:33.50 | 65195 | 76719 7 | 17:02.70 | 2:49.41 | 76720 | 89435 8 | 19:52.36 | 4:22.07 | 89436 | 109092 9 | 24:14.43 | 4:04.44 | 109093 | 127436 10 | 28:19.12 | 3:52.63 | 127437 | 144899 11 | 32:12.00 | 2:47.05 | 144900 | 157429 12 | 34:59.05 | 2:34.17 | 157430 | 168996 13 | 37:33.22 | 2:35.19 | 168997 | 180640 14 | 40:08.41 | 2:20.28 | 180641 | 191168 15 | 42:28.69 | 2:25.70 | 191169 | 202113 16 | 44:54.64 | 3:38.63 | 202114 | 218526 17 | 48:33.52 | 3:30.21 | 218527 | 234297
Track 1
Filename K:\Uploads\Various Artist - Enjoy The Greeks (2004 EAC FLAC)\01 Last Drive - Midnight hop.wav
Pre-gap length 0:00:02.00
Peak level 98.8 % Extraction speed 1.0 X Track quality 99.8 % Test CRC 39B0C20E Copy CRC 39B0C20E Track not present in AccurateRip database Copy OK
Track 2
Filename K:\Uploads\Various Artist - Enjoy The Greeks (2004 EAC FLAC)\02 The Frantic V - Treat Me Kind.wav
Peak level 98.8 % Extraction speed 1.4 X Track quality 100.0 % Test CRC F89A75DF Copy CRC F89A75DF Track not present in AccurateRip database Copy OK
Track 3
Filename K:\Uploads\Various Artist - Enjoy The Greeks (2004 EAC FLAC)\03 The Bullets - Little Angel.wav
Pre-gap length 0:00:02.00
Peak level 98.8 % Extraction speed 1.8 X Track quality 100.0 % Test CRC 95C67D2E Copy CRC 95C67D2E Track not present in AccurateRip database Copy OK
Track 4
Filename K:\Uploads\Various Artist - Enjoy The Greeks (2004 EAC FLAC)\04 The Rockets - Because.wav
Peak level 98.8 % Extraction speed 1.7 X Track quality 100.0 % Test CRC A590D77A Copy CRC A590D77A Track not present in AccurateRip database Copy OK
Track 5
Filename K:\Uploads\Various Artist - Enjoy The Greeks (2004 EAC FLAC)\05 The Teardrops - I Cry.wav
Pre-gap length 0:00:02.00
Peak level 98.8 % Extraction speed 2.0 X Track quality 100.0 % Test CRC E82A5DFB Copy CRC E82A5DFB Track not present in AccurateRip database Copy OK
Track 6
Filename K:\Uploads\Various Artist - Enjoy The Greeks (2004 EAC FLAC)\06 Yesterday's Thoughts - I Don't Love You.wav
Pre-gap length 0:00:02.00
Peak level 79.0 % Extraction speed 1.9 X Track quality 100.0 % Test CRC 1522502F Copy CRC 1522502F Track not present in AccurateRip database Copy OK
Track 7
Filename K:\Uploads\Various Artist - Enjoy The Greeks (2004 EAC FLAC)\07 The Ducky Boys - Really Killing Me.wav
Pre-gap length 0:00:02.00
Peak level 98.8 % Extraction speed 1.6 X Track quality 99.8 % Test CRC F919D00C Copy CRC F919D00C Track not present in AccurateRip database Copy OK
Track 8
Filename K:\Uploads\Various Artist - Enjoy The Greeks (2004 EAC FLAC)\08 The Psykicks - Dark Side.wav
Peak level 79.4 % Extraction speed 2.4 X Track quality 100.0 % Test CRC BC22F254 Copy CRC BC22F254 Track not present in AccurateRip database Copy OK
Track 9
Filename K:\Uploads\Various Artist - Enjoy The Greeks (2004 EAC FLAC)\09 Al.Perros & The Lone Stars - Betty Page.wav
Peak level 98.8 % Extraction speed 2.4 X Track quality 100.0 % Test CRC 04D02A8C Copy CRC 04D02A8C Track not present in AccurateRip database Copy OK
Track 10
Filename K:\Uploads\Various Artist - Enjoy The Greeks (2004 EAC FLAC)\10 George & The Hustlers - Thoughts Of Regret.wav
Peak level 98.8 % Extraction speed 2.6 X Track quality 100.0 % Test CRC DDD83DD1 Copy CRC DDD83DD1 Track not present in AccurateRip database Copy OK
Track 11
Filename K:\Uploads\Various Artist - Enjoy The Greeks (2004 EAC FLAC)\11 Mod Factor - Polymorphously Perverted.wav
Pre-gap length 0:00:02.00
Peak level 98.8 % Extraction speed 2.5 X Track quality 100.0 % Test CRC 37C91577 Copy CRC 37C91577 Track not present in AccurateRip database Copy OK
Track 12
Filename K:\Uploads\Various Artist - Enjoy The Greeks (2004 EAC FLAC)\12 The Meanie Geanies - Little Red Ridin' Hood.wav
Pre-gap length 0:00:02.00
Peak level 98.8 % Extraction speed 1.9 X Track quality 99.8 % Test CRC 6B870DAD Copy CRC 6B870DAD Track not present in AccurateRip database Copy OK
Track 13
Filename K:\Uploads\Various Artist - Enjoy The Greeks (2004 EAC FLAC)\13 Breathless - What To Do.wav
Peak level 98.8 % Extraction speed 2.6 X Track quality 100.0 % Test CRC 6D5A2C8F Copy CRC 6D5A2C8F Track not present in AccurateRip database Copy OK
Track 14
Filename K:\Uploads\Various Artist - Enjoy The Greeks (2004 EAC FLAC)\14 The Overtones - The Bag We're In.wav
Pre-gap length 0:00:02.00
Peak level 95.3 % Extraction speed 2.6 X Track quality 100.0 % Test CRC 1CBDDE05 Copy CRC 1CBDDE05 Track not present in AccurateRip database Copy OK
Track 15
Filename K:\Uploads\Various Artist - Enjoy The Greeks (2004 EAC FLAC)\15 Teddy Boys From The Crypt - Why.wav
Pre-gap length 0:00:02.00
Peak level 92.9 % Extraction speed 2.0 X Track quality 99.8 % Test CRC 2E5E15A4 Copy CRC 2E5E15A4 Track not present in AccurateRip database Copy OK
Track 16
Filename K:\Uploads\Various Artist - Enjoy The Greeks (2004 EAC FLAC)\16 Unknown Passage - Shame On You.wav
Pre-gap length 0:00:02.00
Peak level 98.8 % Extraction speed 2.9 X Track quality 100.0 % Test CRC 3EABC5B8 Copy CRC 3EABC5B8 Track not present in AccurateRip database Copy OK
Track 17
Filename K:\Uploads\Various Artist - Enjoy The Greeks (2004 EAC FLAC)\17 Purple Overdose - 2008 Old View.wav
Pre-gap length 0:00:02.00
Peak level 98.8 % Extraction speed 3.1 X Track quality 100.0 % Test CRC 9A93396F Copy CRC 9A93396F Track not present in AccurateRip database Copy OK
None of the tracks are present in the AccurateRip database
No errors occurred
End of status report
---- CUETools DB Plugin V2.1.3
[CTDB TOCID: ZfKwbnp.aIZf5oU5GygVpG3gFnU-] disk not present in database, Submit result: ZfKwbnp.aIZf5oU5GygVpG3gFnU- has been uploaded
==== Log checksum FED627EEBB83EE6B3344F40AD11E0D48681D19CD305B2B02C6DEFA380A452F7A ====
------------------------------------------------------------
Exact Audio Copy V1.0 beta 3 from 29. August 2011
EAC extraction logfile from 17. November 2014, 1:44
Various Artists / Enjoy The Greeks II
Used drive : HL-DT-STDVDRAM GH22NS50 Adapter: 4 ID: 0
Read mode : SecureUtilize accurate stream : YesDefeat audio cache : YesMake use of C2 pointers : No
Read offset correction : 667Overread into Lead-In and Lead-Out : NoFill up missing offset samples with silence : YesDelete leading and trailing silent blocks : NoNull samples used in CRC calculations : YesUsed interface : Installed external ASPI interfaceGap handling : Appended to previous track
Used output format : User Defined EncoderSelected bitrate : 1024 kBit/sQuality : HighAdd ID3 tag : NoCommand line compressor : C:\Program Files (x86)\Exact Audio Copy\FLAC\FLAC.EXEAdditional command line options : -8 -V -T "ARTIST=%artist%" -T "TITLE=%title%" -T "ALBUM=%albumtitle%" -T "DATE=%year%" -T "TRACKNUMBER=%tracknr%" -T "GENRE=%genre%" -T "PERFORMER=%albuminterpret%" -T "COMPOSER=%composer%" %haslyrics%--tag-from-file=LYRICS="%lyricsfile%"%haslyrics% -T "ALBUMARTIST=%albumartist%" -T "DISCNUMBER=%cdnumber%" -T "TOTALDISCS=%totalcds%" -T "TOTALTRACKS=%numtracks%" -T "COMMENT=%comment%" %source% -o %dest%
TOC of the extracted CD
Track | Start | Length | Start sector | End sector --------------------------------------------------------- 1 | 0:00.00 | 2:19.68 | 0 | 10492 2 | 2:19.68 | 2:04.36 | 10493 | 19828 3 | 4:24.29 | 3:53.31 | 19829 | 37334 4 | 8:17.60 | 2:30.36 | 37335 | 48620 5 | 10:48.21 | 3:40.74 | 48621 | 65194 6 | 14:29.20 | 2:33.50 | 65195 | 76719 7 | 17:02.70 | 2:49.41 | 76720 | 89435 8 | 19:52.36 | 4:22.07 | 89436 | 109092 9 | 24:14.43 | 4:04.44 | 109093 | 127436 10 | 28:19.12 | 3:52.63 | 127437 | 144899 11 | 32:12.00 | 2:47.05 | 144900 | 157429 12 | 34:59.05 | 2:34.17 | 157430 | 168996 13 | 37:33.22 | 2:35.19 | 168997 | 180640 14 | 40:08.41 | 2:20.28 | 180641 | 191168 15 | 42:28.69 | 2:25.70 | 191169 | 202113 16 | 44:54.64 | 3:38.63 | 202114 | 218526 17 | 48:33.52 | 3:30.21 | 218527 | 234297
Track 1
Filename K:\Uploads\Various Artists - Enjoy The Greeks II (2006) (FLAC)\01 Last Drive - Midnight hop.wav
Pre-gap length 0:00:02.00
Peak level 98.8 % Extraction speed 1.0 X Track quality 100.0 % Test CRC 39B0C20E Copy CRC 39B0C20E Track not present in AccurateRip database Copy OK
Track 2
Filename K:\Uploads\Various Artists - Enjoy The Greeks II (2006) (FLAC)\02 The Frantic V - Treat Me Kind.wav
Peak level 98.8 % Extraction speed 0.9 X Track quality 99.9 % Test CRC F89A75DF Copy CRC F89A75DF Track not present in AccurateRip database Copy OK
Track 3
Filename K:\Uploads\Various Artists - Enjoy The Greeks II (2006) (FLAC)\03 The Bullets - Little Angel.wav
Pre-gap length 0:00:02.00
Peak level 98.8 % Extraction speed 1.3 X Track quality 100.0 % Test CRC 95C67D2E Copy CRC 95C67D2E Track not present in AccurateRip database Copy OK
Track 4
Filename K:\Uploads\Various Artists - Enjoy The Greeks II (2006) (FLAC)\04 The Rockets - Because.wav
Peak level 98.8 % Extraction speed 1.3 X Track quality 100.0 % Test CRC A590D77A Copy CRC A590D77A Track not present in AccurateRip database Copy OK
Track 5
Filename K:\Uploads\Various Artists - Enjoy The Greeks II (2006) (FLAC)\05 The Teardrops - I Cry.wav
Pre-gap length 0:00:02.00
Peak level 98.8 % Extraction speed 1.5 X Track quality 100.0 % Test CRC E82A5DFB Copy CRC E82A5DFB Track not present in AccurateRip database Copy OK
Track 6
Filename K:\Uploads\Various Artists - Enjoy The Greeks II (2006) (FLAC)\06 Yesterday's Thoughts - I Don't Love You.wav
Pre-gap length 0:00:02.00
Peak level 79.0 % Extraction speed 1.2 X Track quality 99.9 % Test CRC 1522502F Copy CRC 1522502F Track not present in AccurateRip database Copy OK
Track 7
Filename K:\Uploads\Various Artists - Enjoy The Greeks II (2006) (FLAC)\07 The Ducky Boys - Really Killing Me.wav
Pre-gap length 0:00:02.00
Peak level 98.8 % Extraction speed 1.5 X Track quality 100.0 % Test CRC F919D00C Copy CRC F919D00C Track not present in AccurateRip database Copy OK
Track 8
Filename K:\Uploads\Various Artists - Enjoy The Greeks II (2006) (FLAC)\08 The Psykicks - Dark Side.wav
Peak level 79.4 % Extraction speed 1.8 X Track quality 100.0 % Test CRC BC22F254 Copy CRC BC22F254 Track not present in AccurateRip database Copy OK
Track 9
Filename K:\Uploads\Various Artists - Enjoy The Greeks II (2006) (FLAC)\09 Al.Perros & The Lone Stars - Betty Page.wav
Peak level 98.8 % Extraction speed 1.8 X Track quality 100.0 % Test CRC 04D02A8C Copy CRC 04D02A8C Track not present in AccurateRip database Copy OK
Track 10
Filename K:\Uploads\Various Artists - Enjoy The Greeks II (2006) (FLAC)\10 George & The Hustlers - Thoughts Of Regret.wav
Peak level 98.8 % Extraction speed 1.9 X Track quality 100.0 % Test CRC DDD83DD1 Copy CRC DDD83DD1 Track not present in AccurateRip database Copy OK
Track 11
Filename K:\Uploads\Various Artists - Enjoy The Greeks II (2006) (FLAC)\11 Mod Factor - Polymorphously Perverted.wav
Pre-gap length 0:00:02.00
Peak level 98.8 % Extraction speed 1.9 X Track quality 100.0 % Test CRC 37C91577 Copy CRC 37C91577 Track not present in AccurateRip database Copy OK
Track 12
Filename K:\Uploads\Various Artists - Enjoy The Greeks II (2006) (FLAC)\12 The Meanie Geanies - Little Red Ridin' Hood.wav
Pre-gap length 0:00:02.00
Peak level 98.8 % Extraction speed 1.9 X Track quality 100.0 % Test CRC 6B870DAD Copy CRC 6B870DAD Track not present in AccurateRip database Copy OK
Track 13
Filename K:\Uploads\Various Artists - Enjoy The Greeks II (2006) (FLAC)\13 Breathless - What To Do.wav
Peak level 98.8 % Extraction speed 1.9 X Track quality 100.0 % Test CRC 6D5A2C8F Copy CRC 6D5A2C8F Track not present in AccurateRip database Copy OK
Track 14
Filename K:\Uploads\Various Artists - Enjoy The Greeks II (2006) (FLAC)\14 The Overtones - The Bag We're In.wav
Pre-gap length 0:00:02.00
Peak level 95.3 % Extraction speed 1.9 X Track quality 100.0 % Test CRC 1CBDDE05 Copy CRC 1CBDDE05 Track not present in AccurateRip database Copy OK
Track 15
Filename K:\Uploads\Various Artists - Enjoy The Greeks II (2006) (FLAC)\15 Teddy Boys From The Crypt - Why.wav
Pre-gap length 0:00:02.00
Peak level 92.9 % Extraction speed 2.0 X Track quality 100.0 % Test CRC 2E5E15A4 Copy CRC 2E5E15A4 Track not present in AccurateRip database Copy OK
Track 16
Filename K:\Uploads\Various Artists - Enjoy The Greeks II (2006) (FLAC)\16 Unknown Passage - Shame On You.wav
Pre-gap length 0:00:02.00
Peak level 98.8 % Extraction speed 2.3 X Track quality 100.0 % Test CRC 3EABC5B8 Copy CRC 3EABC5B8 Track not present in AccurateRip database Copy OK
Track 17
Filename K:\Uploads\Various Artists - Enjoy The Greeks II (2006) (FLAC)\17 Purple Overdose - 2008 Old View.wav
Pre-gap length 0:00:02.00
Peak level 98.8 % Extraction speed 2.3 X Track quality 100.0 % Test CRC 9A93396F Copy CRC 9A93396F Track not present in AccurateRip database Copy OK
None of the tracks are present in the AccurateRip database
No errors occurred
End of status report
---- CUETools DB Plugin V2.1.3
[CTDB TOCID: ZfKwbnp.aIZf5oU5GygVpG3gFnU-] found, Submit result: already submitted[799eb18f] (1/1) Accurately ripped
==== Log checksum 5B973F15C15280ED2FB75DBA51219C457B2E0F4404DAB1AE8A92B19F2A8C73E8 ====

Содержание индексной карты (.CUE)

REM GENRE "Rock & Roll"REM DATE 2006REM DISCID D40C3311REM COMMENT "ExactAudioCopy v1.0b3"PERFORMER "Various Artists"TITLE "Enjoy The Greeks II"FILE "01 Last Drive - Midnight hop.wav" WAVE TRACK 01 AUDIO TITLE "Last Drive - Midnight hop" PERFORMER "Various Artists" INDEX 01 00:00:00FILE "02 The Frantic V - Treat Me Kind.wav" WAVE TRACK 02 AUDIO TITLE "The Frantic V - Treat Me Kind" PERFORMER "Various Artists" INDEX 01 00:00:00 TRACK 03 AUDIO TITLE "The Bullets - Little Angel" PERFORMER "Various Artists" INDEX 00 02:02:36FILE "03 The Bullets - Little Angel.wav" WAVE INDEX 01 00:00:00FILE "04 The Rockets - Because.wav" WAVE TRACK 04 AUDIO TITLE "The Rockets - Because" PERFORMER "Various Artists" INDEX 01 00:00:00 TRACK 05 AUDIO TITLE "The Teardrops - I Cry" PERFORMER "Various Artists" INDEX 00 02:28:36FILE "05 The Teardrops - I Cry.wav" WAVE INDEX 01 00:00:00 TRACK 06 AUDIO TITLE "Yesterday's Thoughts - I Don't Love You" PERFORMER "Various Artists" INDEX 00 03:38:74FILE "06 Yesterday's Thoughts - I Don't Love You.wav" WAVE INDEX 01 00:00:00 TRACK 07 AUDIO TITLE "The Ducky Boys - Really Killing Me" PERFORMER "Various Artists" INDEX 00 02:31:50FILE "07 The Ducky Boys - Really Killing Me.wav" WAVE INDEX 01 00:00:00FILE "08 The Psykicks - Dark Side.wav" WAVE TRACK 08 AUDIO TITLE "The Psykicks - Dark Side" PERFORMER "Various Artists" INDEX 01 00:00:00FILE "09 Al.Perros & The Lone Stars - Betty Page.wav" WAVE TRACK 09 AUDIO TITLE "Al.Perros & The Lone Stars - Betty Page" PERFORMER "Various Artists" INDEX 01 00:00:00FILE "10 George & The Hustlers - Thoughts Of Regret.wav" WAVE TRACK 10 AUDIO TITLE "George & The Hustlers - Thoughts Of Regret" PERFORMER "Various Artists" INDEX 01 00:00:00 TRACK 11 AUDIO TITLE "Mod Factor - Polymorphously Perverted" PERFORMER "Various Artists" INDEX 00 03:50:63FILE "11 Mod Factor - Polymorphously Perverted.wav" WAVE INDEX 01 00:00:00 TRACK 12 AUDIO TITLE "The Meanie Geanies - Little Red Ridin' Hood" PERFORMER "Various Artists" INDEX 00 02:45:05FILE "12 The Meanie Geanies - Little Red Ridin' Hood.wav" WAVE INDEX 01 00:00:00FILE "13 Breathless - What To Do.wav" WAVE TRACK 13 AUDIO TITLE "Breathless - What To Do" PERFORMER "Various Artists" INDEX 01 00:00:00 TRACK 14 AUDIO TITLE "The Overtones - The Bag We're In" PERFORMER "Various Artists" INDEX 00 02:33:19FILE "14 The Overtones - The Bag We're In.wav" WAVE INDEX 01 00:00:00 TRACK 15 AUDIO TITLE "Teddy Boys From The Crypt - Why" PERFORMER "Various Artists" INDEX 00 02:18:28FILE "15 Teddy Boys From The Crypt - Why.wav" WAVE INDEX 01 00:00:00 TRACK 16 AUDIO TITLE "Unknown Passage - Shame On You" PERFORMER "Various Artists" INDEX 00 02:23:70FILE "16 Unknown Passage - Shame On You.wav" WAVE INDEX 01 00:00:00 TRACK 17 AUDIO TITLE "Purple Overdose - 2008 Old View" PERFORMER "Various Artists" INDEX 00 03:36:63FILE "17 Purple Overdose - 2008 Old View.wav" WAVE INDEX 01 00:00:00

DR Log

foobar2000 1.1.10 / Dynamic Range Meter 1.1.1log date: 2016-09-01 18:08:08
--------------------------------------------------------------------------------Analyzed: Various Artists / Enjoy The Greeks II--------------------------------------------------------------------------------
DR Peak RMS Duration Track--------------------------------------------------------------------------------DR9 -0.10 dB -10.68 dB 2:20 ?-Last Drive - Midnight hopDR7 -0.10 dB -9.57 dB 2:04 ?-The Frantic V - Treat Me KindDR9 -0.10 dB -10.07 dB 3:53 ?-The Bullets - Little AngelDR9 -0.10 dB -9.97 dB 2:30 ?-The Rockets - BecauseDR10 -0.10 dB -10.62 dB 3:41 ?-The Teardrops - I CryDR6 -2.04 dB -8.74 dB 2:34 ?-Yesterday's Thoughts - I Don't Love YouDR8 -0.10 dB -10.54 dB 2:50 ?-The Ducky Boys - Really Killing MeDR6 -2.00 dB -9.41 dB 4:22 ?-The Psykicks - Dark SideDR8 -0.10 dB -10.00 dB 4:05 ?-Al.Perros & The Lone Stars - Betty PageDR8 -0.10 dB -9.78 dB 3:53 ?-George & The Hustlers - Thoughts Of RegretDR9 -0.10 dB -10.61 dB 2:47 ?-Mod Factor - Polymorphously PervertedDR10 -0.10 dB -12.79 dB 2:34 ?-The Meanie Geanies - Little Red Ridin' HoodDR10 -0.10 dB -11.24 dB 2:35 ?-Breathless - What To DoDR8 -0.42 dB -9.80 dB 2:20 ?-The Overtones - The Bag We're InDR8 -0.63 dB -9.48 dB 2:26 ?-Teddy Boys From The Crypt - WhyDR9 -0.10 dB -11.45 dB 3:39 ?-Unknown Passage - Shame On YouDR8 -0.10 dB -9.06 dB 3:30 ?-Purple Overdose - 2008 Old View--------------------------------------------------------------------------------
Number of tracks: 17Official DR value: DR8
Samplerate: 44100 HzChannels: 2Bits per sample: 16Bitrate: 931 kbpsCodec: FLAC================================================================================

Об альбоме (сборнике)

"The Ultimate Hellenic Rock'n'Roll Compilation"
All tracks are previously unreleased except:
1: taken from "Midnight Hop" EP - ©1985 Metronome Rec. [source: vinyl]
9: taken from "Already Gone" LP - ©1998 Ano Kato Rec.
17: taken from "Painting The Air" LP - ©2004 On Stage Rec.
Other forum [Profile] [PM]
Display posts from previous:    
Reply to topic

The time now is: Today 15:04

All times are GMT + 3 Hours



You cannot post new topics in this forum
You cannot reply to topics in this forum
You cannot edit your posts in this forum
You cannot delete your posts in this forum
You cannot vote in polls in this forum
You cannot attach files in this forum
You cannot download files in this forum