Сегодня идет свободное скачивание без начисления Download

Болота (Пляжный коп) / The Glades / Сезон: 1 / Серии: 1-6 из 13 (Питер О\'Фаллон, Гари А. Рэндолл, Эрик Ланёвилль, Келли Макин) [2010, США, Криминал, детектив, психологический триллер, WEB-DL 720p] Dub (ТВ3) + Original + Rus Sub (full, forced) +

Ответить на тему
 
Автор
Сообщение

Omen ®

Стаж: 5 лет 11 месяцев

Сообщений: 184329

Торрент-статистика

Пост 02-Сен-2016 01:00

[Цитировать]

Болота (Пляжный коп) / The Glades
Год выпуска: 2010
Страна: США
Жанр: Криминал, детектив, психологический триллер
Продолжительность: 1 х ~ 00:46:00, 5 х ~ 00:41:00
Перевод: Профессиональный (дублированный) ROOM13 / ТВ3
Режиссёр: Питер О'Фаллон, Гари А. Рэндолл, Эрик Ланёвилль, Келли Макин
В ролях: Мэтт Пассмор, Киле Санчез, Карлос Гомес, Алексис Мартинез, Джордан Уолл, Мишель Херд, Терра МакКланг, Стивен Л. Коэн, Клейн Кроуфорд
Описание: Сериал рассказывает о Джиме Лонгворте, детективе из Чикаго. После ошибочных обвинений в интрижке с женой капитана, он переехал в маленький городок во Флориде, где гольф и солнце в изобилии, а преступность, казалось бы, сведена к минимуму. Однако жизнь в городке не такая прекрасная, как виделось с первого взгляда.

Пилот
Качество: WEB-DL 720p
Контейнер: MKV
Видео: MPEG-4 AVC, 1280x720 [16:9], 25.000 fps, ~ 4000 Kbps
Аудио 1 : [Русский] AC3, 48 kHz, 2 ch, 192 Kbps - ТВ3 + Alexfilm
Аудио 2 : [Русский] AC3, 48 kHz, 2 ch, 192 Kbps - ТВ3 + Eng
Аудио 3: [Английский] AC3, 48 kHz, 6 ch, 384 Kbps
Субтитры: Русские (forced, full), Английские (full)
2-6 серии
Качество: WEB-DL 720p
Контейнер: MKV
Видео: MPEG-4 AVC, 1280x720 [16:9], 25.000 fps, ~ 4000 Kbps
Аудио 1 : [Русский] AC3, 48 kHz, 2 ch, 192 Kbps - ТВ3
Аудио 2: [Английский] AC3, 48 kHz, 6 ch, 384 Kbps
Субтитры: Русские (full), Английские (full)

Релиз

Релиз - BenderBEST Exclusive
• Видеоряд от GFY
• Частота кадров у видео и оригинальной дороги изменены с 23,976 на родные 25 (PAL) дубляжа чтобы не перетягивать / портить дубляж и слушать его таким каким он должен быть без дефектов и искажений голосов актёров.
• Благодарим за чудесные записи дубляжа Justin
• Благодарим за техническую помощь и консультации Justin
• Благодарим за перевод русских субтитров TrueTransLate
• Работа со звуком и субтитрами - BenderBEST
• На Пилотный эпизод канал ТВ3 заказал международную версию и поэтому [4:55-6:00, 9:36-10:26, 26:07-28:53] имеются вставки Alexfilm и forced

Список серий

01 Пилот (Pilot)
02 Птичка в руке (Bird in the Hand)
03 Идеальный шторм (A Perfect Storm)
04 Дело о грязи (Mucked Up)
05 Любимая по контракту (The Girlfriend Experience)
06 Мнимый двойник (Doppelganger)
07 Кассадага (Cassadaga)
08 Брак убивает (Marriage is Murder)
09 Милашка (Honey)
10 Второй шанс (Second Chance)
11 Добыча (Booty)
12 Разоблачение (Exposed)
13 Побить рекорд (Breaking 80)

MediaInfo

Общее
Уникальный идентификатор : 227831730730613609927139942944332715774 (0xAB66CB9579BD6CE0A74E86F0208216FE)
Полное имя : D:\The.Glades.S01.720p.WEB-DL.Rus.Eng_BenderBEST\The.Glades.S01E01.720p.WEB-DL.Rus.Eng_BenderBEST.mkv
Формат : Matroska
Версия формата : Version 4 / Version 2
Размер файла : 1,63 Гбайт
Продолжительность : 46 м.
Общий поток : 5016 Кбит/сек
Название фильма : ReJliz by BenderBEST
Дата кодирования : UTC 2016-09-01 11:45:45
Программа кодирования : mkvmerge v6.9.1 ('Blue Panther') 32bit built on Apr 18 2014 18:15:44
Библиотека кодирования : libebml v1.3.0 + libmatroska v1.4.1
Видео
Идентификатор : 1
Формат : AVC
Формат/Информация : Advanced Video Codec
Профиль формата : High@L3.1
Параметр CABAC формата : Нет
Параметр ReFrames формата : 2 кадра
Идентификатор кодека : V_MPEG4/ISO/AVC
Продолжительность : 46 м.
Битрейт : 4149 Кбит/сек
Ширина : 1280 пикселей
Высота : 720 пикселей
Соотношение сторон : 16:9
Режим частоты кадров : Постоянный
Частота кадров : 25,000 кадров/сек
Цветовое пространство : YUV
Субдискретизация насыщенности : 4:2:0
Битовая глубина : 8 бит
Тип развёртки : Прогрессивная
Бит/(Пиксели*Кадры) : 0.180
Размер потока : 1,35 Гбайт (83%)
Язык : English
Default : Да
Forced : Да
Цветовой диапазон : Limited
Основные цвета : BT.709
Характеристики трансфера : BT.709
Коэффициенты матрицы : BT.709
Аудио #1
Идентификатор : 2
Формат : AC-3
Формат/Информация : Audio Coding 3
Расширение режима : CM (complete main)
Параметр Endianness формата : Big
Идентификатор кодека : A_AC3
Продолжительность : 46 м.
Вид битрейта : Постоянный
Битрейт : 192 Кбит/сек
Каналы : 2 канала
Расположение каналов : Front: L R
Частота : 48,0 КГц
Частота кадров : 31,250 кадров/сек (1536 spf)
Метод сжатия : С потерями
Размер потока : 63,8 Мбайт (4%)
Заголовок : ТВ3 + Alexfilm
Язык : Russian
Default : Да
Forced : Да
Аудио #2
Идентификатор : 3
Формат : AC-3
Формат/Информация : Audio Coding 3
Расширение режима : CM (complete main)
Параметр Endianness формата : Big
Идентификатор кодека : A_AC3
Продолжительность : 46 м.
Вид битрейта : Постоянный
Битрейт : 192 Кбит/сек
Каналы : 2 канала
Расположение каналов : Front: L R
Частота : 48,0 КГц
Частота кадров : 31,250 кадров/сек (1536 spf)
Метод сжатия : С потерями
Размер потока : 63,8 Мбайт (4%)
Заголовок : ТВ3 + Eng
Язык : English
Default : Нет
Forced : Нет
Аудио #3
Идентификатор : 4
Формат : AC-3
Формат/Информация : Audio Coding 3
Расширение режима : CM (complete main)
Параметр Endianness формата : Big
Идентификатор кодека : A_AC3
Продолжительность : 46 м.
Вид битрейта : Постоянный
Битрейт : 384 Кбит/сек
Каналы : 6 каналов
Расположение каналов : Front: L C R, Side: L R, LFE
Частота : 48,0 КГц
Частота кадров : 31,250 кадров/сек (1536 spf)
Метод сжатия : С потерями
Размер потока : 128 Мбайт (8%)
Язык : English
Default : Нет
Forced : Нет
Текст #1
Идентификатор : 5
Формат : UTF-8
Идентификатор кодека : S_TEXT/UTF8
Идентификатор кодека/Информация : UTF-8 Plain Text
Заголовок : forced на ТВ3 + Eng
Язык : Russian
Default : Нет
Forced : Да
Текст #2
Идентификатор : 6
Формат : UTF-8
Идентификатор кодека : S_TEXT/UTF8
Идентификатор кодека/Информация : UTF-8 Plain Text
Заголовок : full
Язык : Russian
Default : Нет
Forced : Нет
Текст #3
Идентификатор : 7
Формат : UTF-8
Идентификатор кодека : S_TEXT/UTF8
Идентификатор кодека/Информация : UTF-8 Plain Text
Заголовок : full
Язык : English
Default : Нет
Forced : Нет

Скриншоты


Вне форума [Профиль] [ЛС]
Показать сообщения:    
Ответить на тему

Текущее время: Сегодня 07:11

Часовой пояс: GMT + 3



Вы не можете начинать темы
Вы не можете отвечать на сообщения
Вы не можете редактировать свои сообщения
Вы не можете удалять свои сообщения
Вы не можете голосовать в опросах
Вы не можете прикреплять файлы к сообщениям
Вы не можете скачивать файлы