Сегодня идет свободное скачивание без начисления Download

Футурама / Futurama / Сезон: 6 / Серии: 1-26 из 26 (Мэтт Гроунинг) [2011, США, Комедия / Фантастика / Мультипликация, BDRip 1080p] MVO (2x2, LostFilm, Кубик в Кубе, VO-Production) + Subs (Rus, Eng)

Ответить на тему
 
Автор
Сообщение

Omen ®

Стаж: 4 года 10 месяцев

Сообщений: 190643

Торрент-статистика

Пост 02-Сен-2016 01:00

[Цитировать]

-Futurama / Футурама- Год выпуска: 2011
Страна: США
Жанр: Комедия / Фантастика / Мультипликация
Возраст: 16+
Продолжительность серии: ~0:21:38 : ~0:29:02
Перевод: Профессиональный (многоголосый закадровый) 2x2
Перевод: Профессиональный (многоголосый закадровый) LostFilm
Перевод: Профессиональный (многоголосый закадровый) Кубик в Кубе
Перевод: Профессиональный (многоголосый закадровый) VO-Production
Субтитры: Русские (ISFF) и Английские-Режиссёр: Мэтт Гроунинг
Роли озвучивали: Билли Уэст, Кейти Сэгал, Джон ДиМаджио, Фил ЛаМарр, Лоурэн Том и др.-Качество: BDRip | CtrlHD
Формат: MKV
Видео: MPEG-4 AVC/H.264, 1920x1080(16:9), 23.976 fps, ~6500 Kbps
Аудио №1: 2x2: AC3, 192 Kbps, 48.0 kHz, 2 ch [MVO]
Аудио №2: LostFilm: AC3, 192 Kbps, 48.0 kHz, 2 ch [MVO]
Аудио №3: Кубик в Кубе: AC3, 192 Kbps, 48.0 kHz, 2 ch [MVO]
Аудио №4: VO-Production: AC3, 192 Kbps, 48.0 kHz, 2 ch [MVO]
Аудио №5: Английский: DTS, 1509 Kbps, 5.1 ch,[Original]
Аудио №6: Английский: AAC, 128 Kbps, 48.0 kHz, 2 ch [Commentary]
Вид субтитров: Вшитые отключаемые (SRT)- -Описание:
Сериал начинается с того, что разносчик пиццы из Нью-Йорка Филипп Джей Фрай случайно, как это кажется на первый взгляд, был заморожен в криогенной камере ровно в 00 часов 00 минут 00 секунд 1 января 2000 года. Он был разморожен тысячу лет спустя, 31 декабря 2999 года, и обнаружил себя в городе будущего Нью-Нью-Йорке. Знакомясь со своей будущей коллегой Турангой Лилой, Фрай пытается избежать принудительного назначения на работу курьером, кем он и был в прошлой жизни, и внедрения ему карьерного чипа — микросхемы, вшиваемой под кожу и определяющей род занятий своего носителя. Лила, в это время работающая инспектором по раздаче профессий, догоняя Фрая, чтобы вживить ему чип, в результате выслушивания речей Фрая о его прошлой никчемной жизни курьером, отказывается от работы инспектора, которая ей не по душе, и вместе они находят очень дальнего потомка Фрая (его пра-пра-пра-…-пра-внучатого племянника) Хьюберта Фарнсворта — маразматичного 160-летнего гениального ученого-склеротика, который берет их на работу в свою небольшую компанию «Межпланетный экспресс», занимающуюся межгалактическими грузоперевозками, на должность курьера. «Межпланетный экспресс» — это маленький бизнес профессора, окупающий его гениальные, но иногда весьма сомнительные исследования и изобретения
.- -

Список серий

E01. Rebirth (Перерождение)
E02. In-A-Gadda-Da-Leela (В Лилейском саду)
E03. Attack of the Killer App (Атака убойной проги)
E04. Proposition Infinity (Поправка «Бесконечность»)
E05. The Duh-Vinci Code (Код нда Винчи)
E06. Lethal Inspection (Смертельный осмотр)
E07. The Late Philip J. Fry (Опаздывающий Филип Дж. Фрай)
E08. That Darn Katz! (Чёртовы Коты!)
E09. A Clockwork Origin (Происхождение по часовому механизму)
E10. The Prisoner of Benda (Пленник Бендера)
E11. Lrrreconcilable Ndndifferences (Совместимые Различия Лррра и Нднд)
E12. The Mutants Are Revolting (Мутанты протестуют)
E13. The Futurama Holiday Spectacular (Захватывающие праздники Футурамы)
E14. The Silence of the Clamps (Молчание Клешней)
E15. Mobius Dick (Мебиус Дик)
E16. Law and Oracle (Закон и Оракул)
E17. Benderama (Бендерама)
E18. The Tip of the Zoidberg (Совет Зойдберга)
E19. Ghost in the Machines (Призрак в машинах)
E20. Neutopia (Неутопия)
E21. Yo Leela Leela (Привет, Лила, Лила)
E22. Fry am the Egg Man (Фрай, хранитель яйца)
E23. All the Presidents' Heads (Все президентские головы)
E24. Cold Warriors (Простуженные воины)
E25. Overclockwise (По часовой стрелке)
E26. Reincarnation (Реинкарнация)

Скриншоты


MediaInfo

Общее
Уникальный идентификатор : 239859498081282960772988153741204132183 (0xB473424C842167DFB24C59967B821157)
Полное имя : C:\Users\Stila\Desktop\tch\Торрент\Futurama.S06.1080p.BDRip\Futurama.BDRip.1080p.S06E14.mkv
Формат : Matroska
Версия формата : Version 4 / Version 2
Размер файла : 1,22 Гбайт
Продолжительность : 21 м.
Общий поток : 8056 Кбит/сек
Название фильма : E14. The Silence of the Clamps (Молчание Клешней)
Дата кодирования : UTC 2016-08-30 11:24:37
Программа кодирования : mkvmerge v8.3.0 ('Over the Horizon') 64bit
Библиотека кодирования : libebml v1.3.1 + libmatroska v1.4.2
DURATION : 00:21:39.360000000
NUMBER_OF_FRAMES : 40605
NUMBER_OF_BYTES : 31184640
_STATISTICS_WRITING_APP : mkvmerge v8.3.0 ('Over the Horizon') 64bit
_STATISTICS_WRITING_DATE_UTC : 2016-08-30 11:24:37
_STATISTICS_TAGS : BPS DURATION NUMBER_OF_FRAMES NUMBER_OF_BYTES
Видео
Идентификатор : 1
Формат : AVC
Формат/Информация : Advanced Video Codec
Профиль формата : High@L4.1
Параметр CABAC формата : Да
Параметр ReFrames формата : 4 кадра
Идентификатор кодека : V_MPEG4/ISO/AVC
Продолжительность : 21 м.
Номинальный битрейт : 5711 Кбит/сек
Ширина : 1920 пикселей
Высота : 1080 пикселей
Соотношение сторон : 16:9
Режим частоты кадров : Постоянный
Частота кадров : 23,976 кадра/сек
Цветовое пространство : YUV
Субдискретизация насыщенности : 4:2:0
Битовая глубина : 8 бит
Тип развёртки : Прогрессивная
Бит/(Пиксели*Кадры) : 0.115
Заголовок : Futurama S06 1080p
Библиотека кодирования : x264 core 120 r2120 0c7dab9
Настройки программы : cabac=1 / ref=4 / deblock=1:-1:-1 / analyse=0x3:0x133 / me=umh / subme=7 / psy=1 / psy_rd=1.00:0.00 / mixed_ref=1 / me_range=16 / chroma_me=1 / trellis=1 / 8x8dct=1 / cqm=0 / deadzone=21,11 / fast_pskip=1 / chroma_qp_offset=-2 / threads=12 / sliced_threads=0 / nr=0 / decimate=1 / interlaced=0 / bluray_compat=0 / constrained_intra=0 / bframes=3 / b_pyramid=2 / b_adapt=2 / b_bias=0 / direct=1 / weightb=1 / open_gop=0 / weightp=2 / keyint=250 / keyint_min=23 / scenecut=40 / intra_refresh=0 / rc_lookahead=40 / rc=2pass / mbtree=1 / bitrate=5711 / ratetol=1.0 / qcomp=0.60 / qpmin=0 / qpmax=69 / qpstep=4 / cplxblur=20.0 / qblur=0.5 / ip_ratio=1.40 / aq=1:1.00
Язык : English
Default : Да
Forced : Нет
DURATION : 00:21:39.298000000
NUMBER_OF_FRAMES : 31152
NUMBER_OF_BYTES : 927684155
_STATISTICS_WRITING_APP : mkvmerge v8.3.0 ('Over the Horizon') 64bit
_STATISTICS_WRITING_DATE_UTC : 2016-08-30 11:24:37
_STATISTICS_TAGS : BPS DURATION NUMBER_OF_FRAMES NUMBER_OF_BYTES
Аудио #1
Идентификатор : 2
Формат : AC-3
Формат/Информация : Audio Coding 3
Расширение режима : CM (complete main)
Параметр Endianness формата : Big
Идентификатор кодека : A_AC3
Продолжительность : 21 м.
Вид битрейта : Постоянный
Битрейт : 192 Кбит/сек
Каналы : 2 канала
Расположение каналов : Front: L R
Частота : 48,0 КГц
Битовая глубина : 16 бит
Метод сжатия : С потерями
Размер потока : 29,7 Мбайт (2%)
Заголовок : 2x2
Язык : Russian
Default : Да
Forced : Нет
Аудио #2
Идентификатор : 3
Формат : AC-3
Формат/Информация : Audio Coding 3
Расширение режима : CM (complete main)
Параметр Endianness формата : Big
Идентификатор кодека : A_AC3
Продолжительность : 21 м.
Вид битрейта : Постоянный
Битрейт : 192 Кбит/сек
Каналы : 2 канала
Расположение каналов : Front: L R
Частота : 48,0 КГц
Битовая глубина : 16 бит
Метод сжатия : С потерями
Размер потока : 29,7 Мбайт (2%)
Заголовок : LostFilm
Язык : Russian
Default : Нет
Forced : Нет
Аудио #3
Идентификатор : 4
Формат : AC-3
Формат/Информация : Audio Coding 3
Расширение режима : CM (complete main)
Параметр Endianness формата : Big
Идентификатор кодека : A_AC3
Продолжительность : 21 м.
Вид битрейта : Постоянный
Битрейт : 192 Кбит/сек
Каналы : 2 канала
Расположение каналов : Front: L R
Частота : 48,0 КГц
Битовая глубина : 16 бит
Метод сжатия : С потерями
Размер потока : 29,7 Мбайт (2%)
Заголовок : Kubik v kube
Язык : Russian
Default : Нет
Forced : Нет
Аудио #4
Идентификатор : 5
Формат : AC-3
Формат/Информация : Audio Coding 3
Расширение режима : CM (complete main)
Параметр Endianness формата : Big
Идентификатор кодека : A_AC3
Продолжительность : 21 м.
Вид битрейта : Постоянный
Битрейт : 192 Кбит/сек
Каналы : 2 канала
Расположение каналов : Front: L R
Частота : 48,0 КГц
Битовая глубина : 16 бит
Метод сжатия : С потерями
Размер потока : 29,7 Мбайт (2%)
Заголовок : Vo-production
Язык : Russian
Default : Нет
Forced : Нет
Аудио #5
Идентификатор : 6
Формат : DTS
Формат/Информация : Digital Theater Systems
Режим : 16
Параметр Endianness формата : Big
Идентификатор кодека : A_DTS
Продолжительность : 21 м.
Вид битрейта : Постоянный
Битрейт : 1509 Кбит/сек
Каналы : 6 каналов
Расположение каналов : Front: L C R, Side: L R, LFE
Частота : 48,0 КГц
Битовая глубина : 24 бит
Метод сжатия : С потерями
Размер потока : 234 Мбайт (19%)
Заголовок : ENG
Язык : English
Default : Нет
Forced : Нет
Аудио #6
Идентификатор : 7
Формат : AAC
Формат/Информация : Advanced Audio Codec
Профиль формата : HE-AAC / LC
Идентификатор кодека : A_AAC
Продолжительность : 21 м.
Каналы : 2 канала
Расположение каналов : Front: L R
Частота : 48,0 КГц / 24,0 КГц
Метод сжатия : С потерями
Заголовок : ENG, Commentary
Язык : English
Default : Нет
Forced : Нет
Текст #1
Идентификатор : 8
Формат : UTF-8
Идентификатор кодека : S_TEXT/UTF8
Идентификатор кодека/Информация : UTF-8 Plain Text
Заголовок : RUS
Язык : Russian
Default : Нет
Forced : Нет
Текст #2
Идентификатор : 9
Формат : UTF-8
Идентификатор кодека : S_TEXT/UTF8
Идентификатор кодека/Информация : UTF-8 Plain Text
Заголовок : ENG
Язык : English
Default : Нет
Forced : Нет
Меню
00:00:00.000 : en:Chapter 00
00:07:01.754 : en:Chapter 01
00:15:01.609 : en:Chapter 02
00:21:07.474 : en:Chapter 03
Вне форума [Профиль] [ЛС]
Показать сообщения:    
Ответить на тему

Текущее время: Сегодня 02:33

Часовой пояс: GMT + 3



Вы не можете начинать темы
Вы не можете отвечать на сообщения
Вы не можете редактировать свои сообщения
Вы не можете удалять свои сообщения
Вы не можете голосовать в опросах
Вы не можете прикреплять файлы к сообщениям
Вы не можете скачивать файлы