Today is a free download without charge Download

(Psychobilly, Rockabilly) [CD] The Hillbilly Moon Explosion - Raw Deal - 2010, FLAC (image+.cue), lossless

Reply to topic
 
Author
Message

Omen ®

Longevity: 8 years 5 months

Posts: 181087

Торрент-статистика

Post 01-Sep-2016 01:00

[Quote]

The Hillbilly Moon Explosion / Raw Deal
Жанр: Psychobilly, Rockabilly
Носитель: CD
Страна-производитель диска (релиза): UK
Год издания: 2010
Издатель (лейбл): Jungle Records
Номер по каталогу: FREUDCD109
Аудиокодек: FLAC (*.flac)
Тип рипа: image+.cue
Битрейт аудио: lossless
Продолжительность: 39:18
Источник (релизер): CD
Наличие сканов в содержимом раздачи: да
Треклист:
1. Maniac Lover
2. All I Can Do Is Cry
3. Chick Habit
4. Johnny Are You Gay?
5. Raw Deal
6. I'm Gonna Dry My Eyes
7. Clarksdale Boogie
8. Nothin' But You
9. Moonshine Song
10. Walk Italian
11. Live The Life
12. The Long Way Down
13. Brown Eyed Boy
14. Poupee De Cire, Poupee De Son

Лог создания рипа

Exact Audio Copy V1.1 from 23. June 2015
EAC extraction logfile from 23. June 2016, 19:38
The Hillbilly Moon Explosion / Raw Deal
Used drive : PLEXTOR DVDR PX-810SA Adapter: 1 ID: 0
Read mode : SecureUtilize accurate stream : YesDefeat audio cache : YesMake use of C2 pointers : No
Read offset correction : 48Overread into Lead-In and Lead-Out : NoFill up missing offset samples with silence : YesDelete leading and trailing silent blocks : NoNull samples used in CRC calculations : YesUsed interface : Native Win32 interface for Win NT & 2000
Used output format : User Defined EncoderSelected bitrate : 768 kBit/sQuality : HighAdd ID3 tag : NoCommand line compressor : C:\Program Files (x86)\Exact Audio Copy\FLAC\FLAC.EXEAdditional command line options : -6 -V -T "ARTIST=%artist%" -T "TITLE=%title%" -T "ALBUM=%albumtitle%" -T "DATE=%year%" -T "TRACKNUMBER=%tracknr%" -T "GENRE=%genre%" -T "COMMENT=%comment%" -T "BAND=%albuminterpret%" -T "ALBUMARTIST=%albuminterpret%" -T "COMPOSER=%composer%" %haslyrics%--tag-from-file=LYRICS="%lyricsfile%"%haslyrics% -T "DISCNUMBER=%cdnumber%" -T "TOTALDISCS=%totalcds%" -T "TOTALTRACKS=%numtracks%" %hascover%--picture="%coverfile%"%hascover% %source% -o %dest%
TOC of the extracted CD
Track | Start | Length | Start sector | End sector --------------------------------------------------------- 1 | 0:00.00 | 3:39.20 | 0 | 16444 2 | 3:39.20 | 2:23.33 | 16445 | 27202 3 | 6:02.53 | 2:11.29 | 27203 | 37056 4 | 8:14.07 | 3:06.62 | 37057 | 51068 5 | 11:20.69 | 2:16.59 | 51069 | 61327 6 | 13:37.53 | 3:09.26 | 61328 | 75528 7 | 16:47.04 | 3:01.12 | 75529 | 89115 8 | 19:48.16 | 2:20.54 | 89116 | 99669 9 | 22:08.70 | 2:42.62 | 99670 | 111881 10 | 24:51.57 | 2:22.08 | 111882 | 122539 11 | 27:13.65 | 2:51.49 | 122540 | 135413 12 | 30:05.39 | 2:40.31 | 135414 | 147444 13 | 32:45.70 | 3:53.46 | 147445 | 164965 14 | 36:39.41 | 2:38.19 | 164966 | 176834
Range status and errors
Selected range
Filename Z:\audio\The Hillbilly Moon Explosion - Raw Deal.wav
Peak level 98.8 % Extraction speed 6.6 X Range quality 100.0 % Test CRC CEFBB12B Copy CRC CEFBB12B Copy OK
No errors occurred
AccurateRip summary
Track 1 cannot be verified as accurate (confidence 5) [C125D3C8], AccurateRip returned [5CB74ADE] (AR v2)Track 2 cannot be verified as accurate (confidence 5) [0C2253B2], AccurateRip returned [1D3E7C1A] (AR v2)Track 3 cannot be verified as accurate (confidence 5) [F621D771], AccurateRip returned [9962B04C] (AR v2)Track 4 cannot be verified as accurate (confidence 5) [19457E8D], AccurateRip returned [F1C172B6] (AR v2)Track 5 cannot be verified as accurate (confidence 5) [5256EE78], AccurateRip returned [970372FF] (AR v2)Track 6 cannot be verified as accurate (confidence 5) [B400D4EC], AccurateRip returned [5784E8C3] (AR v2)Track 7 cannot be verified as accurate (confidence 5) [67D04654], AccurateRip returned [CD5804DF] (AR v2)Track 8 cannot be verified as accurate (confidence 5) [53886C55], AccurateRip returned [A98BEDE9] (AR v2)Track 9 cannot be verified as accurate (confidence 5) [CFD72A1D], AccurateRip returned [2C57307C] (AR v2)Track 10 cannot be verified as accurate (confidence 5) [6DF26C32], AccurateRip returned [8F328160] (AR v2)Track 11 cannot be verified as accurate (confidence 5) [56DDD33F], AccurateRip returned [1EC80B38] (AR v2)Track 12 cannot be verified as accurate (confidence 5) [08B009C9], AccurateRip returned [4B82BEAA] (AR v2)Track 13 cannot be verified as accurate (confidence 5) [2D76C419], AccurateRip returned [D17264F2] (AR v2)Track 14 cannot be verified as accurate (confidence 5) [D53C3869], AccurateRip returned [6BBE6791] (AR v2)
No tracks could be verified as accurateYou may have a different pressing from the one(s) in the database
End of status report
---- CUETools DB Plugin V2.1.6
[CTDB TOCID: u69WKLlLYjOHOJDla.gRa0ACaQo-] foundSubmit result: u69WKLlLYjOHOJDla.gRa0ACaQo- has been confirmedTrack | CTDB Status 1 | (3/3) Accurately ripped 2 | (3/3) Accurately ripped 3 | (3/3) Accurately ripped 4 | (3/3) Accurately ripped 5 | (3/3) Accurately ripped 6 | (3/3) Accurately ripped 7 | (3/3) Accurately ripped 8 | (3/3) Accurately ripped 9 | (3/3) Accurately ripped 10 | (3/3) Accurately ripped 11 | (3/3) Accurately ripped 12 | (3/3) Accurately ripped 13 | (3/3) Accurately ripped 14 | (3/3) Accurately ripped
==== Log checksum 1665404B205BB590145A4A8431597818FC0452089F1FF74C5CF1820ECED22800 ====
Other forum [Profile] [PM]
Display posts from previous:    
Reply to topic

The time now is: Today 14:22

All times are GMT + 3 Hours



You cannot post new topics in this forum
You cannot reply to topics in this forum
You cannot edit your posts in this forum
You cannot delete your posts in this forum
You cannot vote in polls in this forum
You cannot attach files in this forum
You cannot download files in this forum