Сегодня идет свободное скачивание без начисления Download

Ужин в Америке с Бреттом Гельманом. Специальный выпуск / Brett Gelman\'s Dinner in America (Джейсон Вулинер / Jason Woliner) [2016, США, чёрная комедия, HDTV 720p] Original + Rus Sub (dhreilly)

Ответить на тему
 
Автор
Сообщение

Omen ®

Стаж: 5 лет 6 месяцев

Сообщений: 186946

Торрент-статистика

Пост 31-Авг-2016 01:00

[Цитировать]

Ужин в Америке с Бреттом Гельманом / Brett Gelman's Dinner in America- Год выпуска: 2016
Страна: США
Жанр: чёрная комедия
Продолжительность: 00:24:00
Перевод: Субтитры dhreilly
Режиссёр: Джейсон Вулинер / Jason Woliner
В ролях: Бретт Гельман, Лэнс Реддик, Лоретта Дивайн, Шарика Эппс, Джо Мортон, Мэк Уайлдз-Описание: Вечер памяти Сидни Пуатье превращается в бардак, когда место ведущего занимает Бретт Гельман, а разговор переходит на тему расизма в Америке.-Доп. информация: Это третий спешл из серии «Ужин с Бреттом Гельманом». До этого были ужины с друзьями и родителями.--Сэмпл-Качество: HDTV 720p
Контейнер: MKV
Видео: AVC, 1280x720, ~3272 kbps, 23.976 fps, 0.148 bit/pixel
Аудио: 48 KHz, AС3, 5.1 channels, 448 kbps
Субтитры: srt-

MediaInfo

Format : Matroska
Format version : Version 2
File size : 652 MiB
Duration : 24mn 1s
Overall bit rate : 3 796 Kbps
Encoded date : UTC 2016-07-02 05:36:12
Writing application : mkvmerge v8.9.0 ('Father Daughter') 32bit
Writing library : libebml v1.3.3 + libmatroska v1.4.4
DURATION : 00:24:01.568000000
NUMBER_OF_FRAMES : 45049
NUMBER_OF_BYTES : 80727808
_STATISTICS_WRITING_APP : mkvmerge v8.9.0 ('Father Daughter') 32bit
_STATISTICS_WRITING_DATE_UTC : 2016-07-02 05:36:12
_STATISTICS_TAGS : BPS DURATION NUMBER_OF_FRAMES NUMBER_OF_BYTES
Video
ID : 1
Format : AVC
Format/Info : Advanced Video Codec
Format profile : High@L4.1
Format settings, CABAC : Yes
Format settings, ReFrames : 5 frames
Codec ID : V_MPEG4/ISO/AVC
Duration : 24mn 1s
Bit rate : 3 272 Kbps
Width : 1 280 pixels
Height : 720 pixels
Display aspect ratio : 16:9
Frame rate mode : Constant
Frame rate : 23.976 fps
Color space : YUV
Chroma subsampling : 4:2:0
Bit depth : 8 bits
Scan type : Progressive
Bits/(Pixel*Frame) : 0.148
Stream size : 562 MiB (86%)
Writing library : x264 core 148 r2694 3b70645
Encoding settings : cabac=1 / ref=5 / deblock=1:0:0 / analyse=0x3:0x113 / me=umh / subme=8 / psy=1 / psy_rd=1.00:0.00 / mixed_ref=1 / me_range=16 / chroma_me=1 / trellis=1 / 8x8dct=1 / cqm=0 / deadzone=21,11 / fast_pskip=1 / chroma_qp_offset=-2 / threads=18 / lookahead_threads=3 / sliced_threads=0 / nr=0 / decimate=1 / interlaced=0 / bluray_compat=0 / constrained_intra=0 / bframes=3 / b_pyramid=2 / b_adapt=2 / b_bias=0 / direct=3 / weightb=1 / open_gop=0 / weightp=2 / keyint=240 / keyint_min=24 / scenecut=40 / intra_refresh=0 / rc_lookahead=50 / rc=crf / mbtree=1 / crf=18.0 / qcomp=0.60 / qpmin=0 / qpmax=69 / qpstep=4 / ip_ratio=1.40 / aq=1:1.00
Default : Yes
Forced : No
Matrix coefficients : BT.709
Audio
ID : 2
Format : AC-3
Format/Info : Audio Coding 3
Mode extension : CM (complete main)
Format settings, Endianness : Big
Codec ID : A_AC3
Duration : 24mn 1s
Bit rate mode : Constant
Bit rate : 448 Kbps
Channel count : 6 channels
Channel positions : Front: L C R, Side: L R, LFE
Sampling rate : 48.0 KHz
Bit depth : 16 bits
Compression mode : Lossy
Delay relative to video : 16ms
Stream size : 77.0 MiB (12%)
Language : English
Default : Yes
Forced : No

Скриншоты

Вне форума [Профиль] [ЛС]
Показать сообщения:    
Ответить на тему

Текущее время: Сегодня 01:32

Часовой пояс: GMT + 3



Вы не можете начинать темы
Вы не можете отвечать на сообщения
Вы не можете редактировать свои сообщения
Вы не можете удалять свои сообщения
Вы не можете голосовать в опросах
Вы не можете прикреплять файлы к сообщениям
Вы не можете скачивать файлы