Сегодня идет свободное скачивание без начисления Download

Рейк / Раздолбай / Rake / Сезон: 4 / Серии: 1-8 из 8 (Питер Дункан, Роуэн Вудс, Питер Сэлмон) [2016, Австралия, драма, комедия, WEB-DL 1080p] DVO (kiitos.tv) + Original + Subs (Rus, Eng)

Ответить на тему
 
Автор
Сообщение

Omen ®

Стаж: 5 лет 6 месяцев

Сообщений: 186946

Торрент-статистика

Пост 31-Авг-2016 01:00

[Цитировать]

Рейк | Раздолбай | Rake--«The Bar… has been lowered»-- Год выпуска: 2016 (4 сезон)
Страна: Австралия
Жанр: Драма, комедия
Продолжительность: ~ 00:55:00
Перевод: Любительский двухголосый закадровый (kiitos.tv) | присутствует ненормативная лексика
Субтитры: Русские, английские
--Режиссёр: Питер Дункан / Peter Duncan, Роуэн Вудс / Rowan Woods, Питер Сэлмон / Peter Salmon--В ролях: Richard Roxburgh (Кливер Грин), Russell Dykstra (Барни Мигер), Danielle Cormack (Скарлет Мигер), Matt Day (Дэвид Поттер), Adrienne Pickering (Мелисса Партридж), Kate Box (Николь), Caroline Brazier (Венди Грин), Keegan Joyce (Фаз Грин), John Waters (Эдгар Томпсон), Damien Garvey (Кэл МакГрегор), Rhys Muldoon (Линкольн Линкольн), Jane Allsop (Фелисити Финейн), Sarah Woods (Лили), Marta Kaczmarek (Мария Вигнатти), Sonia Todd (Джейн), Lachlan Judd (Адам Мигер), Rachael Blake (Рут Роджерс) и др.--Описание: Помните этого парня? Правильно, это Кливер Грин. Известный австралийский адвокат, заслуживший репутацию отъявленного алкоголика и наркомана. Все дело в том, что Кливер обладает невероятным даром портить жизнь себе и всем вокруг. Он любит выпить и, чего греха таить, к наркотикам тоже имеет тягу. К тому же у него множество беспорядочных связей и проблемы с азартными играми. Все это выстроило не самый лучший моральный облик Кливера. Но все-таки в нем есть кое-что хорошее. Это его карьера. Ведь Кливер Грин на самом деле блестящий адвокат, Берущийся даже за самые безнадежные дела. В этом ему нет равных. Он успешно завершит любое дело, каким бы трудным оно ни казалось, ведь Кливер знает толк в судебных процессах. В новом 4 сезоне сериала его ждут новые дела и новые клиенты, еще более сомнительные, чем прежде…--

Доп. информация

Источником русской аудиодорожки является релиз группы:
Озвучивание: kiitos, Chertenok
Из аудиодорожки удалены рекламные вставки.
Перевод субтитров: izolenta, kahlan, Podruga, Alexdezh, stailler, DrZloii
--Качество: WEB-DL 1080p
Видео кодек: H.264
Аудио кодек: AC3
Видео: MPEG-4 AVC, 1920х1080(16:9), 25.000 fps, ~ 5000 kbps
Аудио 1: [Русский] AC3, 48 kHz, 2 ch, 192 kbps
Аудио 2: [Английский] AC3, 48 kHz, 2 ch, 192 kbps
Субтитры: Русские, английские (SRT)
--

MediaInfo

Код:
General
Unique ID                   : 245725348012030522426631103042126304165 (0xB8DCFB077F0D4F0BA7D9FC10BF4353A5)
Complete name               : I:\...\Rake.s04.1080p.WEB-DL_MediaClub\Rake.S04E01.1080p.WEB-DL.Rus.Eng_MediaClub.mkv
Format                      : Matroska
Format version              : Version 4 / Version 2
File size                   : 2.12 GiB
Duration                    : 55 min
Overall bit rate mode       : Variable
Overall bit rate            : 5 442 kb/s
Movie name                  : ReJIiZ MediaClub
Encoded date                : UTC 2016-08-04 12:32:28
Writing application         : mkvmerge v7.5.0 ('Glass Culture') 64bit built on Jan  4 2015 16:48:44
Writing library             : libebml v1.3.1 + libmatroska v1.4.2
Cover                       : Yes
Attachments                 : small_cover.jpg / cover.jpg / cover_land.jpg / small_cover_land.jpg
Video
ID                          : 1
Format                      : AVC
Format/Info                 : Advanced Video Codec
Format profile              : High@L4
Format settings, CABAC      : Yes
Format settings, ReFrames   : 2 frames
Codec ID                    : V_MPEG4/ISO/AVC
Duration                    : 55 min
Bit rate mode               : Variable
Bit rate                    : 5 055 kb/s
Maximum bit rate            : 768 kb/s
Width                       : 1 920 pixels
Height                      : 1 080 pixels
Display aspect ratio        : 16:9
Frame rate mode             : Constant
Frame rate                  : 25.000 FPS
Color space                 : YUV
Chroma subsampling          : 4:2:0
Bit depth                   : 8 bits
Scan type                   : Progressive
Bits/(Pixel*Frame)          : 0.098
Stream size                 : 1.97 GiB (93%)
Default                     : Yes
Forced                      : No
Audio #1
ID                          : 2
Format                      : AC-3
Format/Info                 : Audio Coding 3
Mode extension              : CM (complete main)
Format settings, Endianness : Big
Codec ID                    : A_AC3
Duration                    : 55 min
Bit rate mode               : Constant
Bit rate                    : 192 kb/s
Channel(s)                  : 2 channels
Channel positions           : Front: L R
Sampling rate               : 48.0 kHz
Frame rate                  : 31.250 FPS (1536 spf)
Compression mode            : Lossy
Stream size                 : 76.7 MiB (4%)
Title                       : kiitos.tv
Language                    : Russian
Default                     : Yes
Forced                      : No
Audio #2
ID                          : 3
Format                      : AC-3
Format/Info                 : Audio Coding 3
Mode extension              : CM (complete main)
Format settings, Endianness : Big
Codec ID                    : A_AC3
Duration                    : 55 min
Bit rate mode               : Constant
Bit rate                    : 192 kb/s
Channel(s)                  : 2 channels
Channel positions           : Front: L R
Sampling rate               : 48.0 kHz
Frame rate                  : 31.250 FPS (1536 spf)
Compression mode            : Lossy
Stream size                 : 76.7 MiB (4%)
Language                    : English
Default                     : No
Forced                      : No
Text #1
ID                          : 4
Format                      : UTF-8
Codec ID                    : S_TEXT/UTF8
Codec ID/Info               : UTF-8 Plain Text
Duration                    : 54 min
Bit rate                    : 149 b/s
Count of elements           : 1019
Stream size                 : 59.9 KiB (0%)
Language                    : Russian
Default                     : No
Forced                      : No
Text #2
ID                          : 5
Format                      : UTF-8
Codec ID                    : S_TEXT/UTF8
Codec ID/Info               : UTF-8 Plain Text
Duration                    : 55 min
Bit rate                    : 83 b/s
Count of elements           : 1030
Stream size                 : 34.1 KiB (0%)
Language                    : English
Default                     : No
Forced                      : No
-- --
Вне форума [Профиль] [ЛС]
Показать сообщения:    
Ответить на тему

Текущее время: Сегодня 07:40

Часовой пояс: GMT + 3



Вы не можете начинать темы
Вы не можете отвечать на сообщения
Вы не можете редактировать свои сообщения
Вы не можете удалять свои сообщения
Вы не можете голосовать в опросах
Вы не можете прикреплять файлы к сообщениям
Вы не можете скачивать файлы