Сегодня идет свободное скачивание без начисления Download

Рим / Rome / Сезон: 1-2 / Серии: 1-22 из 22 (Майкл Эптед и др.) [2005-2007, драма, HDRip] MVO (НТВ+)

Ответить на тему
 
Автор
Сообщение

Omen ®

Стаж: 5 лет 7 месяцев

Сообщений: 185427

Торрент-статистика

Пост 30-Авг-2016 01:00

[Цитировать]

Рим / Rome
Год выпуска: 2005-2007
Страна: Великобритания, США
Жанр: драма
Продолжительность: 55 мин
Перевод: Профессиональный (многоголосый закадровый) НТВ+
Режиссёр: Майкл Эптед и др.
В ролях: Кевин МакКид, Рэй Стивенсон, Полли Уокер, Сиаран Хиндс, Джеймс Пьюрфой, Керри Кондон, Йэн МакНайс, Линдсей Данкан, Тобиас Мензиес, Николас Вудисон, Линдси Маршал, Индира Варма, Дэвид Бэмбер, Макс Пиркис, Саймон Вудс, Зулейка Робинсон
Описание: "Рим" - совместный проект BBC и американской телекомпании HBO. Многосерийная кинолента переносит зрителя в середину I века до нашей эры - в период заката Римской республики.
Проконсул и император галльских легионов Гай Юлий Цезарь возвращается в Рим после почти девятилетней войны, полностью подавив восстание галлов. Объявленный вне закона, он вступает в конфронтацию с сенатом и консулом Гнеем Помпеем. Первый сезон сериала "Рим" повествует об этом и последующих событиях времен правления Цезаря вплоть до трагических мартовских ид 44-го года.
На фоне кровавых войн, безжалостных интриг и борьбы за власть, прикрываемой словами о возрождении Республики, рассказывается и о нелегкой участи простых людей. Двое ветеранов прославленного 13-го легиона - Луций Ворен и Тит Пулло пытаются вернуться к нормальной гражданской жизни, но мечтам о мире и покое не суждено сбыться.
Красочные, яркие сцены, по словам создателей телесериала, отличаются максимальной исторической достоверностью. Дело не только в скрупулезном следовании деталям в создании костюмов и интерьеров. Авторам удалось передать дух эпохи с ее жестокими нравами, батальными сценами, обилием секса. Именно так создатели картины представляют себе последние годы правления Юлия Цезаря.
Доп. информация: Компактная версия имеющихся на трекере раздач.
Сэмпл: сэмпл 1 сезон, сэмпл 2 сезон
Качество: HDRip
Формат: MKV
Видео: x264, 960x540 (первый сезон), 832х464 (второй сезон), 16:9, 23.976 fps, ~950 kbps
Аудио: русский/НТВ+, AAC LC, 48kHz, 2ch, 112 kbps
Субтитры: в контейнере, софтсаб, языки русский и английский

MediaInfo 1 сезон

General
Unique ID : 252483297239910423134781972529770619551 (0xBDF283A69F2D43F48C636DCD0BCF629F)
Complete name : D:\Downloads\tmp\Rome.Complete.BDRip.x264.AAC.Rus.Eng-E76\Rome.S01.BDRip.x264.AAC.Rus.Eng-E76\rRome.S01E01.The.Stolen.Eagle.BDRip.x264.AAC.Rus.Eng-E76.mkv
Format : Matroska
Format version : Version 2
File size : 480 MiB
Duration : 52mn 17s
Overall bit rate : 1 283 Kbps
Encoded date : UTC 2015-08-01 12:32:57
Writing application : mkvmerge v8.1.0 ('Psychedelic Postcard') 64bit
Writing library : libebml v1.3.1 + libmatroska v1.4.2
Video
ID : 1
Format : AVC
Format/Info : Advanced Video Codec
Format profile : High@L4.1
Format settings, CABAC : Yes
Format settings, ReFrames : 4 frames
Codec ID : V_MPEG4/ISO/AVC
Duration : 52mn 17s
Bit rate : 1 164 Kbps
Width : 960 pixels
Height : 540 pixels
Display aspect ratio : 16:9
Frame rate mode : Constant
Frame rate : 23.976 (24000/1001) fps
Color space : YUV
Chroma subsampling : 4:2:0
Bit depth : 8 bits
Scan type : Progressive
Bits/(Pixel*Frame) : 0.094
Stream size : 435 MiB (91%)
Writing library : x264 core 146 r2538 121396c
Encoding settings : cabac=1 / ref=4 / deblock=1:-1:-1 / analyse=0x3:0x133 / me=umh / subme=9 / psy=1 / psy_rd=0.50:0.00 / mixed_ref=1 / me_range=7 / chroma_me=1 / trellis=2 / 8x8dct=1 / cqm=0 / deadzone=21,11 / fast_pskip=1 / chroma_qp_offset=-2 / threads=6 / lookahead_threads=1 / sliced_threads=0 / nr=0 / decimate=1 / interlaced=0 / bluray_compat=0 / constrained_intra=0 / bframes=3 / b_pyramid=2 / b_adapt=2 / b_bias=0 / direct=1 / weightb=1 / open_gop=0 / weightp=2 / keyint=288 / keyint_min=23 / scenecut=40 / intra_refresh=0 / rc_lookahead=40 / rc=crf / mbtree=1 / crf=22.0 / qcomp=0.60 / qpmin=0 / qpmax=69 / qpstep=4 / vbv_maxrate=5500 / vbv_bufsize=78125 / crf_max=0.0 / nal_hrd=none / filler=0 / ip_ratio=1.40 / aq=1:1.00
Default : Yes
Forced : No
Audio
ID : 2
Format : AAC
Format/Info : Advanced Audio Codec
Format profile : LC
Codec ID : A_AAC
Duration : 52mn 16s
Bit rate : 116 Kbps
Channel(s) : 2 channels
Channel positions : Front: L R
Sampling rate : 48.0 KHz
Frame rate : 46.875 fps (1024 spf)
Compression mode : Lossy
Delay relative to video : 9ms
Stream size : 43.4 MiB (9%)
Language : Russian
Default : Yes
Forced : No
Text #1
ID : 3
Format : UTF-8
Codec ID : S_TEXT/UTF8
Codec ID/Info : UTF-8 Plain Text
Duration : 48mn 15s
Bit rate : 100 bps
Count of elements : 651
Stream size : 35.5 KiB (0%)
Title : Kinomania
Language : Russian
Default : No
Forced : No
Text #2
ID : 4
Format : UTF-8
Codec ID : S_TEXT/UTF8
Codec ID/Info : UTF-8 Plain Text
Duration : 48mn 16s
Bit rate : 117 bps
Count of elements : 666
Stream size : 41.6 KiB (0%)
Title : izmail
Language : Russian
Default : No
Forced : No
Text #3
ID : 5
Format : UTF-8
Codec ID : S_TEXT/UTF8
Codec ID/Info : UTF-8 Plain Text
Duration : 48mn 15s
Bit rate : 60 bps
Count of elements : 651
Stream size : 21.5 KiB (0%)
Language : English
Default : No
Forced : No
Menu
00:00:00.000 : en:00:00:00.000
00:01:43.019 : en:00:01:43.019
00:50:40.123 : en:00:50:40.123
00:52:17.175 : en:00:52:17.175

MediaInfo 2 сезон

General
Unique ID : 209802789226919132823905266647693532735 (0x9DD68C23A398B94FA4494FFB36C41E3F)
Complete name : D:\Downloads\tmp\Rome.Complete.BDRip.x264.AAC.Rus.Eng-E76\Rome.S02.BDRip.x264.AAC.Rus.Eng-E76\r2Rome.S02E01.Passover.BDRip.x264.AAC.Rus.Eng-E76.mkv
Format : Matroska
Format version : Version 2
File size : 384 MiB
Duration : 57mn 50s
Overall bit rate : 927 Kbps
Encoded date : UTC 2016-07-27 09:49:55
Writing application : mkvmerge v8.5.2 ('Crosses') 32bit
Writing library : libebml v1.3.3 + libmatroska v1.4.4
Video
ID : 1
Format : AVC
Format/Info : Advanced Video Codec
Format profile : High@L4.1
Format settings, CABAC : Yes
Format settings, ReFrames : 4 frames
Codec ID : V_MPEG4/ISO/AVC
Duration : 57mn 50s
Bit rate : 813 Kbps
Width : 832 pixels
Height : 464 pixels
Display aspect ratio : 16:9
Frame rate mode : Constant
Frame rate : 23.976 (24000/1001) fps
Color space : YUV
Chroma subsampling : 4:2:0
Bit depth : 8 bits
Scan type : Progressive
Bits/(Pixel*Frame) : 0.088
Stream size : 336 MiB (88%)
Writing library : x264 core 148 r2638 7599210
Encoding settings : cabac=1 / ref=3 / deblock=1:-1:-1 / analyse=0x3:0x113 / me=esa / subme=9 / psy=1 / psy_rd=0.50:0.00 / mixed_ref=1 / me_range=16 / chroma_me=1 / trellis=1 / 8x8dct=1 / cqm=0 / deadzone=21,11 / fast_pskip=1 / chroma_qp_offset=-2 / threads=6 / lookahead_threads=1 / sliced_threads=0 / nr=0 / decimate=1 / interlaced=0 / bluray_compat=0 / constrained_intra=0 / bframes=3 / b_pyramid=2 / b_adapt=1 / b_bias=0 / direct=1 / weightb=1 / open_gop=0 / weightp=2 / keyint=288 / keyint_min=23 / scenecut=40 / intra_refresh=0 / rc_lookahead=40 / rc=crf / mbtree=1 / crf=21.5 / qcomp=0.60 / qpmin=0 / qpmax=69 / qpstep=4 / vbv_maxrate=5500 / vbv_bufsize=78125 / crf_max=0.0 / nal_hrd=none / filler=0 / ip_ratio=1.40 / aq=1:1.00
Language : English
Default : Yes
Forced : No
Audio
ID : 2
Format : AAC
Format/Info : Advanced Audio Codec
Format profile : LC
Codec ID : A_AAC
Duration : 57mn 50s
Bit rate : 112 Kbps
Channel(s) : 2 channels
Channel positions : Front: L R
Sampling rate : 48.0 KHz
Frame rate : 46.875 fps (1024 spf)
Compression mode : Lossy
Delay relative to video : 9ms
Stream size : 46.4 MiB (12%)
Language : Russian
Default : Yes
Forced : No
Text #1
ID : 3
Format : UTF-8
Codec ID : S_TEXT/UTF8
Codec ID/Info : UTF-8 Plain Text
Duration : 53mn 28s
Bit rate : 83 bps
Count of elements : 642
Stream size : 32.8 KiB (0%)
Title : Kinomania
Language : Russian
Default : No
Forced : No
Text #2
ID : 4
Format : UTF-8
Codec ID : S_TEXT/UTF8
Codec ID/Info : UTF-8 Plain Text
Duration : 54mn 14s
Bit rate : 79 bps
Count of elements : 743
Stream size : 31.8 KiB (0%)
Title : sibtitles.ru
Language : Russian
Default : No
Forced : No
Text #3
ID : 5
Format : UTF-8
Codec ID : S_TEXT/UTF8
Codec ID/Info : UTF-8 Plain Text
Duration : 53mn 28s
Bit rate : 52 bps
Count of elements : 642
Stream size : 20.5 KiB (0%)
Title : English
Language : English
Default : No
Forced : No
Menu
00:00:00.000 : en:00:00:00.000
00:01:43.019 : en:00:01:43.019
00:56:13.373 : en:00:56:13.373
00:57:50.133 : en:00:57:50.133

Скриншоты 1 сезон

Скриншоты 2 сезон

Вне форума [Профиль] [ЛС]
Показать сообщения:    
Ответить на тему

Текущее время: Сегодня 13:48

Часовой пояс: GMT + 3



Вы не можете начинать темы
Вы не можете отвечать на сообщения
Вы не можете редактировать свои сообщения
Вы не можете удалять свои сообщения
Вы не можете голосовать в опросах
Вы не можете прикреплять файлы к сообщениям
Вы не можете скачивать файлы