Сегодня идет свободное скачивание без начисления Download

Мушкетеры / The Musketeers / Сезон: 1-3 / Серии: 1-30 из 30 (Тоби Хэйнс, Джон Стриклэнд, Энди Хэй, ...) [2014-2016, драма, приключения, WEB-DL, HDTV 720p] MVO (NewStudio) + Original

Ответить на тему
 
Автор
Сообщение

Omen ®

Стаж: 5 лет 11 месяцев

Сообщений: 184329

Торрент-статистика

Пост 29-Авг-2016 01:01

[Цитировать]

Мушкетеры / The Musketeers Год выпуска: 2014-2016
Страна:
Великобритания (BBC ONE)
США (BBC America)
Жанр: Драма, приключения
Колличество сезонов: 3
Колличество серий: 30
Статус: закончен
Продолжительность: ~ 00:55:00
Перевод: Профессиональный (многоголосый закадровый) NewStudio
В ролях: Люк Паскуалино, Том Бёрк, Ховард Чарльз, Сантьяго Кабрера, Хьюго Спир, Александра Доулинг, Питер Капальди, Райан Гейдж, Тамла Кари, Александра Доулинг, Мэйми МакКой, Мэттью МакНалти, Марк Уоррен, Мэтт Стокоу, Шарлотта Солт, Богдан Порай, Руперт Эверетт, Челси Грант, Эд Стоппард, Уилл Кин, Брайан Петтифер, Фил Роусон, Шарлотта Хоуп, Роджер Рингроуз, Селеста Додуэлл, Питер-Хьюго Дэйли, Джеймс Кэллис, Джей Джей Филд, Антония Томас, Винни Джонс, Эми Натталл, Оливер Коттон, Джейсон Флеминг, Джон Лайтбади, Лиам Каннингэм, Анна Скеллерн, Эмили Бичем, Адриан Шиллер, Зои Таппер и др.
Описание: Мушкетеры собираются на улицах Парижа в семнадцатом веке, где закон и порядок являются больше идеей, чем реальностью. Личные телохранители короля Людовика XIII, Атос, Арамис и Портос решительно стоят за социальную справедливость, за честь, за доблесть, так же за любовь — и за острые ощущения.
Перевод: Александра Цернант (S 01), Григорий Сенин (S 02), Weirdie (S 03)

Скриншот с названием сериала

Мушкетеры / The Musketeers (Сезон 1) Год выпуска: 2014
Качество: 720p
Контейнер: MKV
Видео: AVC, 960x718, 16:9, 25,000 кадров/сек, 4300 Кбит/сек
Аудио 1: Russian, AC-3, 48,0 kHz, 2 канала, 192 Кбит/сек
Аудио 2: English, AAC, 48,0 kHz, 2 канала, 192 Кбит/сек
Субтитры: Отсутствуют
Режиссёры:
Тоби Хэйнс (1,2), Сауль Метцштайн (3,5), Колин Раттен (4)
Энди Хэй (6), Ричард Кларк (7), Фэррен Блэкберн (8,10)
Питер Маккенна (9)
Список серий:
01. Friends and Enemies - Друзья и враги
02. Sleight of Hand - Ловкость рук
03. Commodities - Материальные ценности
04. The Good Soldier - Хороший солдат
05. The Homecoming - Возвращение домой
06. The Exiles - Изгои
07. A Rebellious Woman - Непокорная женщина
08. The Challenge - Поединок
09. Knight Takes Queen - Конь берёт королеву
10. Musketeers Don't Die Easily - Мушкетёров так просто не убить

MediaInfo

Общее
Уникальный идентификатор : 199130011017122029525213382639690933814 (0x95CF0B8BF652265CA70ABB18BA376636)
Полное имя : E:\Мушкетеры_The Musketeers (S1,2,3) FULL (2014-2016)\(S01, E01-10) MVO NewStudio (2014)\The.Musketeers.S01E01.WEBDL.720p.NewStudio.TV.mkv
Формат : Matroska
Версия формата : Version 4 / Version 2
Размер файла : 1,77 Гбайт
Продолжительность : 59 м.
Общий поток : 4300 Кбит/сек
Дата кодирования : UTC 2014-01-28 07:33:00
Программа кодирования : mkvmerge v6.7.0 ('Back to the Ground') 64bit built on Jan 8 2014 15:10:52
Библиотека кодирования : libebml v1.3.0 + libmatroska v1.4.1
Видео
Идентификатор : 1
Формат : AVC
Формат/Информация : Advanced Video Codec
Профиль формата : Main@L3.1
Параметр CABAC формата : Нет
Параметр ReFrames формата : 2 кадра
Идентификатор кодека : V_MPEG4/ISO/AVC
Продолжительность : 59 м.
Ширина : 960 пикселей
Высота : 718 пикселей
Соотношение сторон : 16:9
Режим частоты кадров : Постоянный
Частота кадров : 25,000 кадров/сек
Цветовое пространство : YUV
Субдискретизация насыщенности : 4:2:0
Битовая глубина : 8 бит
Тип развёртки : Прогрессивная
Язык : English
Default : Да
Forced : Нет
Цветовой диапазон : Limited
Основные цвета : BT.709
Характеристики трансфера : BT.709
Коэффициенты матрицы : BT.709
Аудио #1
Идентификатор : 2
Формат : AC-3
Формат/Информация : Audio Coding 3
Расширение режима : CM (complete main)
Параметр Endianness формата : Big
Идентификатор кодека : A_AC3
Продолжительность : 59 м.
Вид битрейта : Постоянный
Битрейт : 192 Кбит/сек
Каналы : 2 канала
Расположение каналов : Front: L R
Частота : 48,0 КГц
Частота кадров : 31,250 кадров/сек (1536 spf)
Метод сжатия : С потерями
Размер потока : 81,1 Мбайт (4%)
Язык : Russian
Default : Да
Forced : Нет
Аудио #2
Идентификатор : 3
Формат : AAC
Формат/Информация : Advanced Audio Codec
Профиль формата : LC
Идентификатор кодека : A_AAC
Продолжительность : 59 м.
Каналы : 2 канала
Расположение каналов : Front: L R
Частота : 48,0 КГц
Частота кадров : 46,875 кадров/сек (1024 spf)
Метод сжатия : С потерями
Язык : English
Default : Нет
Forced : Нет

Скриншоты










Мушкетеры / The Musketeers (Сезон 2) Год выпуска: 2015
Качество: 720p
Контейнер: MKV
Видео: AVC, 1280x720, 16:9, 25,000 кадров/сек, 3916 Кбит/сек
Аудио 1: Russian, AC-3, 48,0 kHz, 2 канала, 192 Кбит/сек
Аудио 2: English, AC-3, 48,0 kHz, 2 канала, 192 Кбит/сек
Субтитры: Отсутствуют
Режиссёры:
Джон Стриклэнд (1,2), Марк Йобст (3,5), Энди Хэй (4,6),
Эдвард Беннет (7,8), Колин Раттен (9), Николас Рентон (10)
Список серий:
01. Keep Your Friends Close - Держи друзей близко...
02. An Ordinary Man - Простой человек
03. The Good Traitor - Добрый предатель
04. Emilie - Эмили
05. The Return - Возвращение
06. Through a Glass Darkly... - Сквозь стекло
07. A Marriage of Inconvenience - Брак без расчёта
08. The Prodigal Father - Блудный отец
09. The Accused - Обвиняемые
10. Trial and Punishment - Суд и приговор

MediaInfo

Общее
Уникальный идентификатор : 179013651112448454666354488916117820851 (0x86ACC66DD0D518C7835A76F6CBEC15B3)
Полное имя : E:\Мушкетеры_The Musketeers (S1,2,3) FULL (2014-2016)\(S02, E01-10) MVO NewStudio (2015)\The.Musketeers.S02E01.HDTV.720p.NewStudio.TV.mkv
Формат : Matroska
Версия формата : Version 4 / Version 2
Размер файла : 1,59 Гбайт
Продолжительность : 58 м.
Общий поток : 3916 Кбит/сек
Дата кодирования : UTC 2015-01-05 15:45:25
Программа кодирования : mkvmerge v7.4.0 ('Circles') 64bit built on Dec 12 2014 12:19:56
Библиотека кодирования : libebml v1.3.0 + libmatroska v1.4.1
Видео
Идентификатор : 1
Формат : AVC
Формат/Информация : Advanced Video Codec
Профиль формата : High@L4.1
Параметр CABAC формата : Да
Параметр ReFrames формата : 8 кадров
Идентификатор кодека : V_MPEG4/ISO/AVC
Продолжительность : 58 м.
Битрейт : 3530 Кбит/сек
Ширина : 1280 пикселей
Высота : 720 пикселей
Соотношение сторон : 16:9
Режим частоты кадров : Постоянный
Частота кадров : 25,000 кадров/сек
Цветовое пространство : YUV
Субдискретизация насыщенности : 4:2:0
Битовая глубина : 8 бит
Тип развёртки : Прогрессивная
Бит/(Пиксели*Кадры) : 0.153
Размер потока : 1,43 Гбайт (90%)
Библиотека кодирования : x264 core 144 r2525 40bb568
Настройки программы : cabac=1 / ref=8 / deblock=1:0:0 / analyse=0x3:0x133 / me=umh / subme=9 / psy=1 / psy_rd=1.00:0.00 / mixed_ref=1 / me_range=16 / chroma_me=1 / trellis=2 / 8x8dct=1 / cqm=0 / deadzone=21,11 / fast_pskip=1 / chroma_qp_offset=-2 / threads=18 / lookahead_threads=2 / sliced_threads=0 / nr=0 / decimate=1 / interlaced=0 / bluray_compat=0 / constrained_intra=0 / bframes=5 / b_pyramid=2 / b_adapt=2 / b_bias=0 / direct=3 / weightb=1 / open_gop=0 / weightp=2 / keyint=250 / keyint_min=25 / scenecut=40 / intra_refresh=0 / rc_lookahead=60 / rc=crf / mbtree=1 / crf=18.0 / qcomp=0.60 / qpmin=0 / qpmax=69 / qpstep=4 / ip_ratio=1.40 / aq=1:1.00
Язык : English
Default : Да
Forced : Нет
Цветовой диапазон : Limited
Коэффициенты матрицы : BT.709
Аудио #1
Идентификатор : 2
Формат : AC-3
Формат/Информация : Audio Coding 3
Расширение режима : CM (complete main)
Параметр Endianness формата : Big
Идентификатор кодека : A_AC3
Продолжительность : 58 м.
Вид битрейта : Постоянный
Битрейт : 192 Кбит/сек
Каналы : 2 канала
Расположение каналов : Front: L R
Частота : 48,0 КГц
Частота кадров : 31,250 кадров/сек (1536 spf)
Метод сжатия : С потерями
Задержка видео : -80 мс.
Размер потока : 79,9 Мбайт (5%)
Язык : Russian
Default : Да
Forced : Нет
Аудио #2
Идентификатор : 3
Формат : AC-3
Формат/Информация : Audio Coding 3
Расширение режима : CM (complete main)
Параметр Endianness формата : Big
Идентификатор кодека : A_AC3
Продолжительность : 58 м.
Вид битрейта : Постоянный
Битрейт : 192 Кбит/сек
Каналы : 2 канала
Расположение каналов : Front: L R
Частота : 48,0 КГц
Частота кадров : 31,250 кадров/сек (1536 spf)
Метод сжатия : С потерями
Размер потока : 79,9 Мбайт (5%)
Язык : English
Default : Нет
Forced : Нет

Скриншоты










Мушкетеры / The Musketeers (Сезон 3) Год выпуска: 2016
Качество: 720p
Контейнер: MKV
Видео: AVC, 960x718, 16:9, 25,000 кадров/сек, 4402 Кбит/сек
Аудио 1: Russian, AC-3, 48,0 kHz, 2 канала, 192 Кбит/сек
Аудио 2: English, AAC, 48,0 kHz, 2 канала, 123 Кбит/сек
Субтитры: Отсутствуют
Режиссёры:
Энди Хэй (1,2), Роджер Голдби (3,5), Николас Рентон (4,6)
Сью Талли (7,9), Юдайан Прасад (8,10)
Список серий:
01. Spoils of War - Военные трофеи
02. The Hunger - Голод
03. Brother in Arms - Братья по оружию
04. The Queen's Diamonds - Бриллианты королевы
05. To Play the King - Ход королём
06. Death of a Hero - Смерть героя
07. Fool's Gold - Золото дураков
08. Prisoner of War - Военнопленный
09. The Prize - Награда
10. We Are the Garrison - Мы - гарнизон

MediaInfo

Общее
Уникальный идентификатор : 235330382139881608988741935037895486614 (0xB10AFBA47E755A5DB393F63FB71D2C96)
Полное имя : E:\Мушкетеры_The Musketeers (S1,2,3) FULL (2014-2016)\(S03, E01-10) MVO NewStudio (2016)\The.Musketeers.S03E01.WEBDL.720p.NewStudio.TV.mkv
Формат : Matroska
Версия формата : Version 4 / Version 2
Размер файла : 1,81 Гбайт
Продолжительность : 58 м.
Общий поток : 4402 Кбит/сек
Дата кодирования : UTC 2016-04-25 20:17:51
Программа кодирования : mkvmerge v8.2.0 ('World of Adventure') 32bit
Библиотека кодирования : libebml v1.3.1 + libmatroska v1.4.2
Видео
Идентификатор : 1
Формат : AVC
Формат/Информация : Advanced Video Codec
Профиль формата : Main@L3.1
Параметр CABAC формата : Нет
Параметр ReFrames формата : 2 кадра
Идентификатор кодека : V_MPEG4/ISO/AVC
Продолжительность : 58 м.
Битрейт : 4084 Кбит/сек
Ширина : 960 пикселей
Высота : 718 пикселей
Соотношение сторон : 16:9
Режим частоты кадров : Постоянный
Частота кадров : 25,000 кадров/сек
Цветовое пространство : YUV
Субдискретизация насыщенности : 4:2:0
Битовая глубина : 8 бит
Тип развёртки : Прогрессивная
Бит/(Пиксели*Кадры) : 0.237
Размер потока : 1,68 Гбайт (93%)
Язык : English
Default : Да
Forced : Нет
Цветовой диапазон : Limited
Основные цвета : BT.709
Характеристики трансфера : BT.709
Коэффициенты матрицы : BT.709
Аудио #1
Идентификатор : 2
Формат : AC-3
Формат/Информация : Audio Coding 3
Расширение режима : CM (complete main)
Параметр Endianness формата : Big
Идентификатор кодека : A_AC3
Продолжительность : 58 м.
Вид битрейта : Постоянный
Битрейт : 192 Кбит/сек
Каналы : 2 канала
Расположение каналов : Front: L R
Частота : 48,0 КГц
Частота кадров : 31,250 кадров/сек (1536 spf)
Метод сжатия : С потерями
Размер потока : 80,7 Мбайт (4%)
Заголовок : NewStudio.TV
Язык : Russian
Default : Да
Forced : Нет
Аудио #2
Идентификатор : 3
Формат : AAC
Формат/Информация : Advanced Audio Codec
Профиль формата : LC
Идентификатор кодека : A_AAC
Продолжительность : 58 м.
Битрейт : 123 Кбит/сек
Каналы : 2 канала
Расположение каналов : Front: L R
Частота : 48,0 КГц
Частота кадров : 46,875 кадров/сек (1024 spf)
Метод сжатия : С потерями
Размер потока : 51,7 Мбайт (3%)
Язык : English
Default : Нет
Forced : Нет

Скриншоты










Бонус

Вне форума [Профиль] [ЛС]
Показать сообщения:    
Ответить на тему

Текущее время: Сегодня 21:04

Часовой пояс: GMT + 3



Вы не можете начинать темы
Вы не можете отвечать на сообщения
Вы не можете редактировать свои сообщения
Вы не можете удалять свои сообщения
Вы не можете голосовать в опросах
Вы не можете прикреплять файлы к сообщениям
Вы не можете скачивать файлы