Сегодня идет свободное скачивание без начисления Download

Очень странные дела / Stranger Things / Сезон: 1 / Серии: 8 из 8 (Мэтт Даффер, Росс Даффер, Шон Леви) [2016, ужасы, триллер, драма, WEB-DLRip 1080p] MVO (Jaskier) + Original

Ответить на тему
 
Автор
Сообщение

Omen ®

Стаж: 5 лет 10 месяцев

Сообщений: 184329

Торрент-статистика

Пост 29-Авг-2016 01:01

[Цитировать]

Очень странные дела / Stranger Things
Год выпуска: 2016
Страна: США, 21 Laps Entertainment
Жанр: ужасы, триллер, драма
Продолжительность: 8 ~ 00:50:00
Перевод: Профессиональный (многоголосый закадровый) [Jaskier]
Режиссёр: Мэтт Даффер, Росс Даффер, Шон Леви
В ролях: Вайнона Райдер, Дэвид Харбор, Милли Бобби Браун, Калеб МакЛафлин, Ной Шнапп, Наталия Дайер, Чарли Хитон, Мэттью Модайн
Описание: Главное действие нового телевизионного сериала разворачивается в 80-х годах на территории тихого провинциального города. Благоприятное течение местной жизни нарушает загадочное исчезновение подростка по имени Уилл. Выяснить обстоятельства дела, полны решимости родные мальчика и местный шериф. Также события затрагивают лучшего друга Уилла – Майка. Он начинает собственное расследование, в процессе которого встречает группу людей со сверхспособностями. Теперь Майк уверен, что близок к разгадке, однако для этого ему предстоит оказаться в эпицентре ожесточенной битвы потусторонних сил.
Качество: WEB-DLRip 1080p
Формат: MKV
Видео кодек: H.265
Видео: 1920x960, 23.976 кадр/сек, 4150 Кбит/сек
Аудио: Русская, 384 Кбит/сек, 6 канала(ов), 48,0 КГц
Аудио 2: Английская, 384 Кбит/сек, 6 канала(ов), 48,0 КГц
Субтитры: нет

MediaInfo

General
Unique ID : 221425012495620124127151599584401152773 (0xA694E7FCBBE0DC859E0946A8346FDB05)
Complete name : D:\ВИДЕО\[HEVC]\Stranger Things [S01] (2016) WEBRip 1080р [HEVC]\Stranger Things S01E02 The Weirdo On Maple Street WEBRip 1080р.mkv
Format : Matroska
Format version : Version 2
File size : 1.94 GiB
Duration : 55 min
Overall bit rate : 5 030 kb/s
Movie name : Stranger Things S01E02 The Weirdo On Maple Street WEBRip 2160p 2xRus Eng Subs by Stiles RG SerialS
Encoded date : UTC 2016-08-26 20:34:35
Writing application : DVDFab 9.2.4.4
Writing library : libebml v0.7.8 + libmatroska v0.8.1
Video
ID : 1
Format : HEVC
Format/Info : High Efficiency Video Coding
Format profile : Main@L5@High
Codec ID : V_MPEGH/ISO/HEVC
Duration : 55 min
Bit rate : 4 162 kb/s
Width : 1 920 pixels
Height : 960 pixels
Display aspect ratio : 2.000
Frame rate mode : Constant
Frame rate : 23.976 (24000/1001) FPS
Color space : YUV
Chroma subsampling : 4:2:0
Bit depth : 8 bits
Bits/(Pixel*Frame) : 0.094
Stream size : 1.60 GiB (83%)
Default : Yes
Forced : No
Audio #1
ID : 2
Format : AC-3
Format/Info : Audio Coding 3
Mode extension : CM (complete main)
Format settings, Endianness : Big
Codec ID : A_AC3
Duration : 55 min
Bit rate mode : Constant
Bit rate : 384 kb/s
Channel(s) : 6 channels
Channel positions : Front: L C R, Side: L R, LFE
Sampling rate : 48.0 kHz
Frame rate : 31.250 FPS (1536 spf)
Compression mode : Lossy
Stream size : 151 MiB (8%)
Language : Russian
Default : Yes
Forced : No
Audio #2
ID : 3
Format : AC-3
Format/Info : Audio Coding 3
Mode extension : CM (complete main)
Format settings, Endianness : Big
Codec ID : A_AC3
Duration : 55 min
Bit rate mode : Constant
Bit rate : 384 kb/s
Channel(s) : 6 channels
Channel positions : Front: L C R, Side: L R, LFE
Sampling rate : 48.0 kHz
Frame rate : 31.250 FPS (1536 spf)
Compression mode : Lossy
Stream size : 151 MiB (8%)
Language : English
Default : No
Forced : No

Скриншоты

Вне форума [Профиль] [ЛС]
Показать сообщения:    
Ответить на тему

Текущее время: Сегодня 23:26

Часовой пояс: GMT + 3



Вы не можете начинать темы
Вы не можете отвечать на сообщения
Вы не можете редактировать свои сообщения
Вы не можете удалять свои сообщения
Вы не можете голосовать в опросах
Вы не можете прикреплять файлы к сообщениям
Вы не можете скачивать файлы