Сегодня идет свободное скачивание без начисления Download

Штамм / The Strain / Сезон: 1 / Серии: 1 (10) (Дж. Майлз Дэйл, Кен Джиротти) [2016, ужасы, триллер, драма, HDTVRip] MVO (FocusStudio)

Ответить на тему
 
Автор
Сообщение

Omen ®

Стаж: 5 лет 6 месяцев

Сообщений: 186946

Торрент-статистика

Пост 29-Авг-2016 01:00

[Цитировать]

-Штамм / The Strain
3 сезон, 1 серия
- Год выпуска: 2016
Страна: США
Жанр: ужасы, фантастика, драма
Продолжительность: 1 х ~ 43 мин
Озвучание: профессиональное многоголосое закадровое (FocusStudio)-Режиссёры: Дж. Майлз Дэйл, Кен Джиротти-В ролях: Кори Столл, Дэвид Брэдли, Джим Уотсон, Кевин Дюран, Бен Хайленд, Джонатан Хайд, Рихард Заммель, Мигель Гомес, Натали Браун, Джек Кеси, Шон Эстин, Роберт Мэйллет, Хавьер Ботет, Фрэнсис Капра, Роджер Р. Кросс, Лесли Хоуп, Реджина Кинг, Мелани Меркоски, Дрю Нельсон...-Описание: В аэропорту Нью-Йорка экстренно приземляется самолет, полный мертвецов. Для выяснения обстоятельств их смерти на борт направляются ученые, возглавляемые лучшим городским эпидемиологом Эфраимом Гудвезером. В ходе исследований становится ясно, что пассажиры заражены вирусом вампиризма, который грозит перерасти в масштабную эпидемию, способную погубить все человечество.-Релиз: - --Качество: HDTVRip
Формат: AVI
Видео: 720x400 (16:9), 23.976 fps, XviD ~1400 kbps avg, 0.203 bit/pixel
Аудио Rus: 48 kHz, MPEG Layer 3, 2 ch, ~128.00 kbps
Субтитры: отсутствуют-

Скриншоты

MediaInfo

Format : AVI
Format/Info : Audio Video Interleave
File size : 470 MiB
Duration : 42mn 44s
Overall bit rate : 1 537 Kbps
Writing application : VirtualDubMod 1.5.10.3 | www.virtualdub-fr.org || (build 2550/release)
Writing library : VirtualDubMod build 2550/release
Video
ID : 0
Format : MPEG-4 Visual
Format profile : Advanced Simple@L5
Format settings, BVOP : 1
Format settings, QPel : No
Format settings, GMC : No warppoints
Format settings, Matrix : Default (MPEG)
Codec ID : XVID
Codec ID/Hint : XviD
Duration : 42mn 44s
Bit rate : 1 400 Kbps
Width : 720 pixels
Height : 400 pixels
Display aspect ratio : 16:9
Frame rate : 23.976 (23976/1000) fps
Color space : YUV
Chroma subsampling : 4:2:0
Bit depth : 8 bits
Scan type : Progressive
Compression mode : Lossy
Bits/(Pixel*Frame) : 0.203
Stream size : 428 MiB (91%)
Writing library : XviD 1.2.1 (UTC 2008-12-04)
Audio
ID : 1
Format : MPEG Audio
Format version : Version 1
Format profile : Layer 3
Mode : Joint stereo
Mode extension : MS Stereo
Codec ID : 55
Codec ID/Hint : MP3
Duration : 42mn 44s
Bit rate mode : Constant
Bit rate : 128 Kbps
Channel(s) : 2 channels
Sampling rate : 48.0 KHz
Compression mode : Lossy
Stream size : 39.1 MiB (8%)
Alignment : Aligned on interleaves
Interleave, duration : 42 ms (1.00 video frame)
Interleave, preload duration : 504 ms
Title : Russian

Раздача ведется путем добавления новых серий

Когда раздача ведётся путём добавления новых серий, при каждом добавлении создётся новый торрент. Чтобы начать докачку новой серии, пользователям необходимо сделать следующее:
(1) остановить скачивание,
(2) удалить старый торрент у себя из клиента (старые серии удалять не надо),
(3) скачать новый торрент и запустить его у себя в клиенте вместо старого, при этом указать клиенту путь в старую папку, куда и должно происходить скачивание новых серий.
Ваш клиент при этом должен произвести хеширование (проверку) старой папки (если не производит сам - помогите ему сделать это), и будет докачивать только те серии, которых у вас ещё нет. Старые серии при этом не удаляются, а продолжают раздаваться!
Eсли вы уже удалили старые серии, то предотвратить повторную закачку старых серий можно, отжав галочку в соответствующих местах при запуске нового торрента. По возможности, желательно не удалять старые серии как можно дольше, чтобы релизёр не столько продолжал раздавать старые серии, а смог сконцентрироваться на новых.
-
Вне форума [Профиль] [ЛС]
Показать сообщения:    
Ответить на тему

Текущее время: Сегодня 05:58

Часовой пояс: GMT + 3



Вы не можете начинать темы
Вы не можете отвечать на сообщения
Вы не можете редактировать свои сообщения
Вы не можете удалять свои сообщения
Вы не можете голосовать в опросах
Вы не можете прикреплять файлы к сообщениям
Вы не можете скачивать файлы