Сегодня идет свободное скачивание без начисления Download

Мушкетеры / The Musketeers (Энди Хэй, Николас Рентон, Фэррен Блэкберн) (сезон 3, серии 1-10 из 10) [2016, драма, приключения, WEB-DLRip] LostFilm

Ответить на тему
 
Автор
Сообщение

Russian Mafia ®

Пол:

Стаж: 3 года 4 месяца

Сообщений: 343

Торрент-статистика

Пост 27-Авг-2016 19:12

[Цитировать]

Производство: Великобритания / BBC America, BBC Drama Productions, BBC Worldwide
Жанр: драма, приключения
Режиссер: Энди Хэй, Николас Рентон, Фэррен Блэкберн
Актеры: Люк Паскуалино, Том Бёрк, Ховард Чарльз, Сантьяго Кабрера, Райан Гейдж, Хьюго Спир, Тамла Кари, Мэйми МакКой, Александра Доулинг, Питер Капальди и др.
Описание:
Париж, XVII век. Знакомые с детства герои вновь встречаются, чтобы скрестить шпаги, не подозревая, что эта ссора «трое на одного» — начало большой дружбы и целой череды увлекательных приключений. Дерзкий Д'Артаньян одержим идеей мести и раздираем амбициями, а мушкетеры то и дело ввязываются в самые разнообразные потасовки, не жалея пуль, не щадя противников и не разбирая, кто прав, кто виноват. «Вы деретесь ради драки, ради смеха льете кровь!».
Сэмпл
Продолжительность: ~01:00:00 серия
Качество видео: WEB-DLRip
Перевод: Многоголосый закадровый, профессиональный - LostFilm
Реклама: присутствуют заставка и логотип LostFilm.
Видео: XviD, 720x400 (16:9), ~1915 kb/s
Аудио Rus: MPEG Layer 3, 48,0 kHz, 2 ch, 192 kb/s — многоголосый закадровый

MediaInfo

Код:
Общее
Полное имя                               : D:\Мушкетеры (сезон 3) The Musketeers (2016) WEB-DLRip - LostFilm\The.Musketeers.S03E01.rus.LostFilm.TV.avi
Формат                                   : AVI
Формат/Информация                        : Audio Video Interleave
Размер файла                             : 890 Мбайт
Продолжительность                        : 58 м.
Режим общего битрейта                    : Переменный
Общий поток                              : 2113 Кбит/сек
Программа кодирования                    : Nandub v1.0rc2
Библиотека кодирования                   : Nandub build 1853/release
Видео
Идентификатор                            : 0
Формат                                   : MPEG-4 Visual
Профиль формата                          : Advanced Simple@L5
Параметр BVOP формата                    : Нет
Параметр QPel формата                    : Нет
Параметр GMC формата                     : Без точки перехода
Параметр матрицы формата                 : Default (H.263)
Идентификатор кодека                     : XVID
Идентификатор кодека/Подсказка           : XviD
Продолжительность                        : 58 м.
Битрейт                                  : 1915 Кбит/сек
Ширина                                   : 720 пикселей
Высота                                   : 400 пикселей
Соотношение сторон                       : 16:9
Частота кадров                           : 25,000 кадров/сек
Цветовое пространство                    : YUV
Субдискретизация насыщенности            : 4:2:0
Битовая глубина                          : 8 бит
Тип развёртки                            : Прогрессивная
Метод сжатия                             : С потерями
Бит/(Пиксели*Кадры)                      : 0.266
Размер потока                            : 807 Мбайт (91%)
Библиотека кодирования                   : XviD 1.2.1 (UTC 2008-12-04)
Аудио
Идентификатор                            : 1
Формат                                   : MPEG Audio
Версия формата                           : Version 1
Профиль формата                          : Layer 3
Режим                                    : Joint stereo
Расширение режима                        : MS Stereo
Идентификатор кодека                     : 55
Идентификатор кодека/Подсказка           : MP3
Продолжительность                        : 58 м.
Вид битрейта                             : Переменный
Битрейт                                  : 192 Кбит/сек
Каналы                                   : 2 канала
Частота                                  : 48,0 КГц
Метод сжатия                             : С потерями
Размер потока                            : 78,1 Мбайт (9%)
Выравнивание                             : Соединение по промежуткам
Продолжительность промежутка             : 24  мс. (0,60 видеокадр)
Время предзагрузки промежутка            : 497  мс.
Библиотека кодирования                   : LAME3.97b
Настройки программы                      : -m j -V 4 -q 3 -lowpass 18.6 --abr 192

Список серий

01. Spoils of War / Военные трофеи
02. The Hunger / Голод
03. Brother in Arms / Братья по оружию
04. The Queen's Diamonds / Бриллианты королевы
05. To Play the King / Сыграть короля
06. Death of a Hero / Гибель героя
07. Fool's Gold / Золото дураков
08. Prisoner of War / Военнопленный
09. The Prize / Награда
10. We Are the Garrison / Мы- гарнизон

Скриншоты

       
Вне форума [Профиль] [ЛС]
Показать сообщения:    
Ответить на тему

Текущее время: Сегодня 00:15

Часовой пояс: GMT + 3



Вы не можете начинать темы
Вы не можете отвечать на сообщения
Вы не можете редактировать свои сообщения
Вы не можете удалять свои сообщения
Вы не можете голосовать в опросах
Вы не можете прикреплять файлы к сообщениям
Вы не можете скачивать файлы