Сегодня идет свободное скачивание без начисления Download

Тайны Смолвиля / Smallville / Сезон 9 / Серии 1-12 (22) (Альфред Гоф, Майлз Миллар) [2009-2010, фантастика, драма, HDRip] DVO (Sony Sci-Fi) + Original

Ответить на тему
 
Автор
Сообщение

Omen ®

Стаж: 5 лет 10 месяцев

Сообщений: 184329

Торрент-статистика

Пост 27-Авг-2016 01:01

[Цитировать]

-Тайны Смолвиля / SmallvilleСезон 9, Серии 1-12-- Год выпуска: 2009-2010
Страна: США, Канада
Жанр: Фантастика, Приключения, Молодёжная драма
Продолжительность: ~ 00:42:00 x 10 + 01:20:00 x 1
Перевод: Профессиональный (двухголосый, закадровый) Sony Sci-Fi
Субтитры: отсутствуют-Режиссёры: Альфред Гоф / Alfred Gough, Майлз Миллар / Miles Millar
В ролях: Том Уэллинг / Tom Welling, Эллисон Мэк / Allison Mack, Эрика Дюранс / Erica Durance, Кэссиди Фриман / Cassidy Freeman, Каллум Блу / Callum Blue, Джастин Хартли / Justin Hartley-Описание: "Тайны Смолвиля" - новый фантастический сериал о Супермэне.
На этот раз сюжет сфокусирован на подростковом периоде жизни Кларка Кента. Всё начинается с того, что в 1989 году, после метеоритного дождя в городе Смолвиль появляется маленький ребёнок - Кларк Кент.
Наши дни. Кларк учится в школе. Его удивительные способности заставляют, всё чаше задуматься о том кто он есть. К тому же он увлечён свое одноклассницей - Ланой Лэнг, чьи родители погибли во время метеоритного дождя. Это обстоятельство существенно осложняет их взаимоотношения. Заботливые родители Кларка пытаются любым путём сохранить его тайну, даже запрещают ему играть в школьной футбольной команде.
Однажды Кларк спасает жизнь молодого бизнесмена Лекса Лютера, когда его машина, потеряв управление, падает с моста в реку. С этого момента и начинается череда разных приключений Кларка.-Рип: Мосенька
Работа со звуком: Tom Soyer
-
-Сэмпл: http://multi-up.com/1113822
Качество: HDRip
Формат: AVI
Видео кодек: XviD
Аудио кодек: MP3
Видео: 624x352, 23.976 fps, ~ 1 000 kbps, 0.201 b/p
Аудио 1: MP3, 48 KHz, 2 ch, 128 kbps [Русский, Sony Sci-Fi]
Аудио 2: MP3, 48 KHz, 2 ch, 128 kbps [Английский]-

MI

General
Complete name : smallville.s09e01.Savior.hdrip.rus.dvo.eng.avi
Format : AVI
Format/Info : Audio Video Interleave
File size : 400 MiB
Duration : 42 min
Overall bit rate : 1 326 kb/s
Writing application : VirtualDubMod 1.5.10.2 (build 2540/release)
Writing library : VirtualDubMod build 2540/release
Video
ID : 0
Format : MPEG-4 Visual
Format profile : Advanced Simple@L5
Format settings, BVOP : 1
Format settings, QPel : No
Format settings, GMC : No warppoints
Format settings, Matrix : Default (H.263)
Codec ID : XVID
Codec ID/Hint : XviD
Duration : 42 min
Bit rate : 1 056 kb/s
Width : 624 pixels
Height : 352 pixels
Display aspect ratio : 16:9
Frame rate : 23.976 (23976/1000) FPS
Color space : YUV
Chroma subsampling : 4:2:0
Bit depth : 8 bits
Scan type : Progressive
Compression mode : Lossy
Bits/(Pixel*Frame) : 0.200
Stream size : 319 MiB (80%)
Writing library : XviD 63
Audio #1
ID : 1
Format : MPEG Audio
Format version : Version 1
Format profile : Layer 3
Mode : Joint stereo
Mode extension : MS Stereo
Codec ID : 55
Codec ID/Hint : MP3
Duration : 42 min
Bit rate mode : Constant
Bit rate : 128 kb/s
Channel(s) : 2 channels
Sampling rate : 48.0 kHz
Compression mode : Lossy
Stream size : 38.7 MiB (10%)
Alignment : Aligned on interleaves
Interleave, duration : 42 ms (1.00 video frame)
Interleave, preload duration : 504 ms
Audio #2
ID : 2
Format : MPEG Audio
Format version : Version 1
Format profile : Layer 3
Mode : Joint stereo
Mode extension : MS Stereo
Codec ID : 55
Codec ID/Hint : MP3
Duration : 42 min
Bit rate mode : Constant
Bit rate : 128 kb/s
Channel(s) : 2 channels
Sampling rate : 48.0 kHz
Compression mode : Lossy
Stream size : 38.7 MiB (10%)
Alignment : Aligned on interleaves
Interleave, duration : 42 ms (1.00 video frame)
Interleave, preload duration : 504 ms
Writing library : LAME3.99r
Encoding settings : -m j -V 4 -q 2 -lowpass 17 -b 128
-
-

Внимание! Раздача ведётся путём добавления новых серий

Внимание! Раздача ведётся путём добавления новых серий; при каждом добавлении создётся новый торрент. Чтобы начать докачку новой серии, пользователям необходимо сделать следующее:
  • Остановить скачивание.
  • Удалить старый торрент у себя из клиента (старые серии удалять не надо).
  • Скачать новый торрент и запустить его у себя в клиенте вместо старого, при этом указать клиенту путь в старую папку куда и должно происходить скачивание новых серий.
    Ваш клиент при этом должен произвести хеширование (проверку) старой папки (если не производит сам - помогите ему сделать это), и будет докачивать только те серии которых у вас ещё нет. Старые серии при этом не удаляются, а продолжают раздаваться!
    Eсли вы уже удалили старые серии, то предотвратить повторную закачку старых серий можно, отжав галочку в соответсвующих местах при запуске нового торрента. По возможности, желательно не удалять старые серии как можно дольше чтобы релизёр не столько продолжал раздавать старые серии, а смог сконцентрироваться на новых.
-
Вне форума [Профиль] [ЛС]
Похожие темы
Форум Тема Автор Торрент Отв. Посл. сообщение
./templates/default/images/folder_dl.gif Медицина и Здоровье Дмитрий Коваль | Избавиться от боли за 30 секунд! Секретные точки здоровья. Тайны древнего Китая [2015] [FB2] Omen
1 | 0

0 | 1016

18

2015-06-02 21:53
Omen Последнее
./templates/default/images/folder_dl.gif Приключения и квесты Secrets of the Dark: The Flower of Shadow Collector\'s Edition / Тайны Тьмы: Цветок Теней. Коллекционное издание [P] [RUS / ENG] (2014) Omen
5 | 0

0 | 1422

19

2015-06-11 12:04
Omen Последнее
Показать сообщения:    
Ответить на тему

Текущее время: Сегодня 22:24

Часовой пояс: GMT + 3



Вы не можете начинать темы
Вы не можете отвечать на сообщения
Вы не можете редактировать свои сообщения
Вы не можете удалять свои сообщения
Вы не можете голосовать в опросах
Вы не можете прикреплять файлы к сообщениям
Вы не можете скачивать файлы