Сегодня идет свободное скачивание без начисления Download

Дрянь / Флибэг / Fleabag / Сезон: 1 / Серии: 1 из 6 (Гарри Брэдбир / Harry Bradbeer) [2016, Великобритания, комедия, WEB-DL 720p] MVO (NewStudio) + Original

Ответить на тему
 
Автор
Сообщение

Omen ®

Стаж: 5 лет 9 месяцев

Сообщений: 184402

Торрент-статистика

Пост 27-Авг-2016 01:00

[Цитировать]

--Дрянь / Флибэг / Fleabag-- Год выпуска: 2016
Страна: Великобритания
Жанр: комедия
Продолжительность: ~ 00:26:00
Перевод: Профессиональный (многоголосый закадровый) NewStudio
Режиссёр: Гарри Брэдбир / Harry Bradbeer
В ролях: Фиби Уоллер-Бридж, Бен Элдридж, Сиан Клиффорд, Джэми Деметриу, Билл Патерсон, Дженни Рейнсфорд, Хью Скиннер, Оливия Колман, Сара Дэйкин, Хью Дэннис и др.
Описание: История остроумной, сексуально-озабоченной, полной ненависти и упивающейся своими горестями женщины, которая бросается на баррикады повседневности современного Лондона.- --Качество: WEB-DL 720p (NTb)
Контейнер: MKV
Видео: H.264, 960@1280x536 (2.40:1), 25.000 fps, ~ 3 922 kbps, 0.305 bit/pixel
Аудио # rus: 48 kHz, AC3 Dolby Digital, 2 ch, ~192 kbps
Аудио # eng: 48 kHz, ААС, 2 ch, ~156 kbps
Субтитры: отсутствуют
В релизе отсутствует реклама

MediaInfo

General
Unique ID : 227607215183596006990432912706842568348 (0xAB3B8E1CDF7FB9F6A9F81D9B2692A69C)
Complete name : G:\Films\Fleabag.S01.720p.WEB-DL\Fleabag.S01E01.720p.WEB-DL.Rus.Eng.mkv
Format : Matroska
Format version : Version 4 / Version 2
File size : 797 MiB
Duration : 26mn 4s
Overall bit rate : 4 273 Kbps
Encoded date : UTC 2016-08-26 06:26:26
Writing application : mkvmerge v9.4.0 ('Knurl') 64bit
Writing library : libebml v1.3.4 + libmatroska v1.4.5
Encoded/Released by : hj@BTN/HDB
Group : NTb
Video
ID : 1
Format : AVC
Format/Info : Advanced Video Codec
Format profile : Main@L3.1
Format settings, CABAC : No
Format settings, ReFrames : 2 frames
Codec ID : V_MPEG4/ISO/AVC
Duration : 26mn 4s
Bit rate : 3 922 Kbps
Width : 960 pixels
Height : 536 pixels
Display aspect ratio : 2.40:1
Frame rate mode : Constant
Frame rate : 25.000 fps
Color space : YUV
Chroma subsampling : 4:2:0
Bit depth : 8 bits
Scan type : Progressive
Bits/(Pixel*Frame) : 0.305
Stream size : 732 MiB (92%)
Language : English
Default : Yes
Forced : No
Color range : Limited
Color primaries : BT.709
Transfer characteristics : BT.709
Matrix coefficients : BT.709
Audio #1
ID : 2
Format : AC-3
Format/Info : Audio Coding 3
Mode extension : CM (complete main)
Format settings, Endianness : Big
Codec ID : A_AC3
Duration : 26mn 4s
Bit rate mode : Constant
Bit rate : 192 Kbps
Channel(s) : 2 channels
Channel positions : Front: L R
Sampling rate : 48.0 KHz
Frame rate : 31.250 fps (1536 spf)
Compression mode : Lossy
Stream size : 35.8 MiB (4%)
Title : NewStudio
Language : Russian
Default : Yes
Forced : No
Audio #2
ID : 3
Format : AAC
Format/Info : Advanced Audio Codec
Format profile : LC
Codec ID : A_AAC
Duration : 26mn 4s
Bit rate : 156 Kbps
Channel(s) : 2 channels
Channel positions : Front: L R
Sampling rate : 48.0 KHz
Frame rate : 46.875 fps (1024 spf)
Compression mode : Lossy
Stream size : 29.2 MiB (4%)
Title : original
Language : English
Default : No
Forced : No

Скриншоты

Внимание! Раздача ведётся путём добавления новых серий.


Внимание! Раздача ведётся путём добавления новых серий; при каждом добавлении создётся новый торрент. Чтобы начать докачку новой серии, пользователям необходимо сделать следующее:
Остановить скачивание.
Удалить старый торрент у себя из клиента (старые серии удалять не надо).
Скачать новый торрент и запустить его у себя в клиенте вместо старого, при этом указать клиенту путь в старую папку куда и должно происходить скачивание новых серий.
Ваш клиент при этом должен произвести хеширование (проверку) старой папки (если не производит сам - помогите ему сделать это), и будет докачивать только те серии которых у вас ещё нет. Старые серии при этом не удаляются, а продолжают раздаваться!
Eсли вы уже удалили старые серии, то предотвратить повторную закачку старых серий можно, отжав галочку в соответсвующих местах при запуске нового торрента. По возможности, желательно не удалять старые серии как можно дольше чтобы релизёр не столько продолжал раздавать старые серии, а смог сконцентрироваться на новых.
Вне форума [Профиль] [ЛС]
Показать сообщения:    
Ответить на тему

Текущее время: Сегодня 00:16

Часовой пояс: GMT + 3



Вы не можете начинать темы
Вы не можете отвечать на сообщения
Вы не можете редактировать свои сообщения
Вы не можете удалять свои сообщения
Вы не можете голосовать в опросах
Вы не можете прикреплять файлы к сообщениям
Вы не можете скачивать файлы