Сегодня идет свободное скачивание без начисления Download

Друзья / Friends / Сезон: 9 / Серии: 1-2 (24) (Гари Хэлворсон, Кевин Брайт, Майкл Лембек) [2002, США, комедия, мелодрама, BDRip 720p] 2xMVO (Paramount Comedy, СТС) + Ukr (1+1) + Original + Sub (Rus, Eng)

Ответить на тему
 
Автор
Сообщение

Omen ®

Стаж: 5 лет 9 месяцев

Сообщений: 184393

Торрент-статистика

Пост 26-Авг-2016 01:00

[Цитировать]

Друзья / Friends -Год выпуска: 2002
Страна: США
Студия: Warner Bros Entertainment
Жанр: комедия, мелодрама
Продолжительность: ~23 минуты (серия)
Перевод:
  • Профессиональный (многоголосый закадровый) компания "True Dubbing Studio" по заказу Paramount Comedy
  • Профессиональный (многоголосый закадровый) студия "Нота" по заказу СТС
  • Профессиональный (многоголосый закадровый) 1+1 |Украинский|
-Режиссёр: Гари Хэлворсон, Кевин Брайт, Майкл Лембек-В ролях: Дженнифер Энистон, Кортни Кокс, Лиза Кудроу, Мэтт ЛеБлан, Мэттью Перри, Дэвид Швиммер, Джеймс Майкл Тайлер, Эллиот Гулд, Кристина Пиклз, Мэгги Уилер, Пол Радд, Джейн Сиббетт и другие.-Роли озвучивали:
  • Paramount Comedy: Иван Калинин, Радик Мухаметзянов, Никита Прозоровский, Ольга Голованова, Ольга Сирина, Анастасия Лапина.
  • СТС: Сергей Быстрицкий, Никита Прозоровский, Ольга Сирина, Людмила Ильина.
-Описание: Главные герои — шестеро друзей — Рейчел, Моника, Фиби, Джо, Чендлер и Росс. Три девушки и три парня, которые дружат, живут по соседству, вместе убивают время и противостоят жестокой реальности, делятся своими секретами и иногда очень сильно влюбляются.-РЕЛИЗ ОТ: V.SERIJ2013-

Спасибо

  • #Antisnl#, Beer kolesik Drinkers - за запись звука с телеканала Paramount Comedy;
  • markinscor, Nez - за аудиодорожки СТС и 1+1;
  • vit1811 - за русские субтитры;
  • v.serij2013 (т.е., мне) - за синхронизацию аудиодорожки Paramount Comedy.
-Качество: BDRip 720p |HDClub|
Формат: MKV
Видео кодек: H.264
Аудио кодек: AC3
Видео: H.264, 1280x720 (16:9), 23.976 fps, ~7578 kbps, 0.343 bit/pixel
Аудио:
  • русская |Paramount Comedy|: AC3, 48 kHz, 2 ch, 192 kbps
    русская |СТС|: AC3, 48 kHz, 2 ch, 192 kbps
  • украинская |1+1|: AC3, 48 kHz, 2 ch, 192 kbps
  • английская |Оригинал|: AC3, 48 kHz, 6 ch, 640 kbps
Субтитры: русские, английские |SDH|-Сэмпл-

Скриншоты

Список серий

01. The One Where No One Proposes
02. The One Where Emma Cries

Media Info

Код:
General
Unique ID                      : 238961962147339076030440889867411620598 (0xB3C6665C5DF55971B771081F3C5B82F6)
Complete name                  : E:\Video\HD\Series (HD)\Friends Season 9 (BDRip 720p)\01. The One Where No One Proposes.mkv
Format                         : Matroska
Format version                 : Version 4 / Version 2
File size                      : 1.46 GiB
Duration                       : 23mn 16s
Overall bit rate               : 8 972 Kbps
Encoded date                   : UTC 2016-08-25 10:58:59
Writing application            : mkvmerge v8.8.0 ('Wind at my back') 32bit
Writing library                : libebml v1.3.3 + libmatroska v1.4.4
DURATION                       : 00:23:16.704000000
NUMBER_OF_FRAMES               : 43647
NUMBER_OF_BYTES                : 33520896
_STATISTICS_WRITING_APP        : mkvmerge v8.8.0 ('Wind at my back') 32bit
_STATISTICS_WRITING_DATE_UTC   : 2016-08-25 10:58:59
_STATISTICS_TAGS               : BPS DURATION NUMBER_OF_FRAMES NUMBER_OF_BYTES
Video
ID                             : 1
Format                         : AVC
Format/Info                    : Advanced Video Codec
Format profile                 : High@L4.0
Format settings, CABAC         : Yes
Format settings, ReFrames      : 8 frames
Codec ID                       : V_MPEG4/ISO/AVC
Duration                       : 23mn 16s
Bit rate                       : 7 578 Kbps
Width                          : 1 280 pixels
Height                         : 720 pixels
Display aspect ratio           : 16:9
Frame rate mode                : Constant
Frame rate                     : 23.976 fps
Color space                    : YUV
Chroma subsampling             : 4:2:0
Bit depth                      : 8 bits
Scan type                      : Progressive
Bits/(Pixel*Frame)             : 0.343
Stream size                    : 1.23 GiB (84%)
Writing library                : x264 core 129 r2230 1cffe9f
Encoding settings              : cabac=1 / ref=8 / deblock=1:-3:-3 / analyse=0x3:0x133 / me=umh / subme=10 / psy=1 / psy_rd=1.17:0.00 / mixed_ref=1 / me_range=48 / chroma_me=1 / trellis=2 / 8x8dct=1 / cqm=0 / deadzone=21,11 / fast_pskip=0 / chroma_qp_offset=-2 / threads=12 / lookahead_threads=2 / sliced_threads=0 / nr=0 / decimate=1 / interlaced=0 / bluray_compat=0 / constrained_intra=0 / bframes=7 / b_pyramid=2 / b_adapt=2 / b_bias=0 / direct=3 / weightb=1 / open_gop=0 / weightp=2 / keyint=250 / keyint_min=23 / scenecut=40 / intra_refresh=0 / rc=crf / mbtree=0 / crf=18.5 / qcomp=0.70 / qpmin=0 / qpmax=69 / qpstep=4 / ip_ratio=1.40 / pb_ratio=1.30 / aq=1:0.75
Language                       : English
Default                        : Yes
Forced                         : No
DURATION                       : 00:23:15.686000000
NUMBER_OF_FRAMES               : 33463
NUMBER_OF_BYTES                : 1353177600
_STATISTICS_WRITING_APP        : mkvmerge v8.8.0 ('Wind at my back') 32bit
_STATISTICS_WRITING_DATE_UTC   : 2016-08-25 10:58:59
_STATISTICS_TAGS               : BPS DURATION NUMBER_OF_FRAMES NUMBER_OF_BYTES
Audio #1
ID                             : 2
Format                         : AC-3
Format/Info                    : Audio Coding 3
Mode extension                 : CM (complete main)
Format settings, Endianness    : Big
Codec ID                       : A_AC3
Duration                       : 23mn 16s
Bit rate mode                  : Constant
Bit rate                       : 192 Kbps
Channel(s)                     : 2 channels
Channel positions              : Front: L R
Sampling rate                  : 48.0 KHz
Bit depth                      : 16 bits
Compression mode               : Lossy
Stream size                    : 32.0 MiB (2%)
Title                          : MVO (Paramount Comedy)
Language                       : Russian
Default                        : Yes
Forced                         : No
Audio #2
ID                             : 3
Format                         : AC-3
Format/Info                    : Audio Coding 3
Mode extension                 : CM (complete main)
Format settings, Endianness    : Big
Codec ID                       : A_AC3
Duration                       : 23mn 16s
Bit rate mode                  : Constant
Bit rate                       : 192 Kbps
Channel(s)                     : 2 channels
Channel positions              : Front: L R
Sampling rate                  : 48.0 KHz
Bit depth                      : 16 bits
Compression mode               : Lossy
Stream size                    : 32.0 MiB (2%)
Title                          : MVO (СТС)
Language                       : Russian
Default                        : No
Forced                         : No
Audio #3
ID                             : 4
Format                         : AC-3
Format/Info                    : Audio Coding 3
Mode extension                 : CM (complete main)
Format settings, Endianness    : Big
Codec ID                       : A_AC3
Duration                       : 23mn 16s
Bit rate mode                  : Constant
Bit rate                       : 192 Kbps
Channel(s)                     : 2 channels
Channel positions              : Front: L R
Sampling rate                  : 48.0 KHz
Bit depth                      : 16 bits
Compression mode               : Lossy
Stream size                    : 32.0 MiB (2%)
Title                          : MVO (1+1)
Language                       : Ukrainian
Default                        : No
Forced                         : No
Audio #4
ID                             : 5
Format                         : AC-3
Format/Info                    : Audio Coding 3
Mode extension                 : CM (complete main)
Format settings, Endianness    : Big
Codec ID                       : A_AC3
Duration                       : 23mn 16s
Bit rate mode                  : Constant
Bit rate                       : 640 Kbps
Channel(s)                     : 6 channels
Channel positions              : Front: L C R, Side: L R, LFE
Sampling rate                  : 48.0 KHz
Bit depth                      : 16 bits
Compression mode               : Lossy
Stream size                    : 107 MiB (7%)
Title                          : Original
Language                       : English
Default                        : No
Forced                         : No
Text #1
ID                             : 6
Format                         : UTF-8
Codec ID                       : S_TEXT/UTF8
Codec ID/Info                  : UTF-8 Plain Text
Title                          : СТС
Language                       : Russian
Default                        : No
Forced                         : No
Text #2
ID                             : 7
Format                         : UTF-8
Codec ID                       : S_TEXT/UTF8
Codec ID/Info                  : UTF-8 Plain Text
Title                          : SDH
Language                       : English
Default                        : No
Forced                         : No
Menu
00:00:00.000                   : en:00:00:00.000
00:02:46.666                   : en:00:02:46.666
00:12:09.729                   : en:00:12:09.729
00:22:41.527                   : en:00:22:41.527
-
Вне форума [Профиль] [ЛС]
Похожие темы
Форум Тема Автор Торрент Отв. Посл. сообщение
./templates/default/images/folder_dl.gif Обучающее видео Михаил Шестов | Говорим по английски как Друзья / SupremeLearning Friends (2014) HDRip XP1971
1 | 0

0 | 9090

20

2017-06-27 11:45
XP1971 Последнее
Показать сообщения:    
Ответить на тему

Текущее время: Сегодня 15:07

Часовой пояс: GMT + 3



Вы не можете начинать темы
Вы не можете отвечать на сообщения
Вы не можете редактировать свои сообщения
Вы не можете удалять свои сообщения
Вы не можете голосовать в опросах
Вы не можете прикреплять файлы к сообщениям
Вы не можете скачивать файлы