Сегодня идет свободное скачивание без начисления Download

Доказательство / Proof / Сезон: 1 / Серии: 1-10 из 10 (Алекс Грейвз, Милисент Шелтон, Эллисон Андерс) [2015, Драма, мистика, WEB-DLRip] MVO (ТНТ) + Original

Ответить на тему
 
Автор
Сообщение

Omen ®

Стаж: 5 лет 9 месяцев

Сообщений: 184433

Торрент-статистика

Пост 25-Авг-2016 01:01

[Цитировать]

Доказательство / Proof
Год выпуска: 2015
Страна: США, Канада
Жанр: Драма, мистика
Продолжительность: 00:43:00
Перевод: Профессиональный (многоголосый закадровый) ТНТ
Режиссёр: Алекс Грейвз, Милисент Шелтон, Эллисон Андерс
В ролях: Эди Гатеги, Джо Мортон, Дженнифер Билз, Каллум Блу, Кэролайн Роуз Каплан, Мэттью Модайн, Энни Турман, Дэвид Сатклифф
Описание: Мистическая история о том, что нас ждет после смерти, есть ли у человека душа,
и что с ней происходит, когда бренное тело умирает. Рано или поздно над этими вопросами задумывается каждый.
Главной героине-хирургу Кэролин предстоит найти доказательства существования загробной жизни. Поручил это странное непростое дело ей один эксцентричный миллионер. Мужчина болен раком и желает точно знать, что его ожидает после смерти.
Кэролин с помощниками начинает заниматься исследованием случаев реинкарнации, клинической смерти и призраков — все это, чтобы ответить на один вопрос:
смерть — это действительно конец, или есть еще что-то после нее?.
Ссылка на предыдущие и альтернативные раздачи: [url=tracker.php?f=189,2366&nm=Proof+2015]http:///*spam*//forum/tracker.php?f=189,2366&nm=Proof+2015[/url]
Сэмпл: http://multi-up.com/1114941
Качество: WEB-DLRip
Формат: AVI
Видео: MPEG4, DivX 5, 720x400 (16:9), 23.976 fps, 1 550 Kbps (0.225 bit/pixel)
Аудио: AC-3, 48.0 KHz, 2 ch, 192 Kbps, CBR - русский
Аудио 2: AC-3, 48.0 KHz, 2 ch, 192 Kbps, CBR - английский
Субтитры: нет

MediaInfo

бщее
Полное имя : M:\1x01 - Pilot.avi
Формат : AVI
Формат/Информация : Audio Video Interleave
Размер файла : 602 Мбайт
Продолжительность : 43 м.
Общий поток : 1949 Кбит/сек
Название фильма : Доказательство / Proof (2015)
Программа кодирования : VirtualDubMod 1.5.10.2 (build 2540/release)
Библиотека кодирования : VirtualDubMod build 2540/release
Авторское право : miha2154
Видео
Идентификатор : 0
Формат : MPEG-4 Visual
Профиль формата : Advanced Simple@L5
Параметр BVOP формата : 1
Параметр QPel формата : Нет
Параметр GMC формата : Без точки перехода
Параметр матрицы формата : Выборочная
Идентификатор кодека : DX50
Идентификатор кодека/Подсказка : DivX 5
Продолжительность : 43 м.
Битрейт : 1550 Кбит/сек
Ширина : 720 пикселей
Высота : 400 пикселей
Соотношение сторон : 16:9
Частота кадров : 23,976 (24000/1001) кадра/сек
Цветовое пространство : YUV
Субдискретизация насыщенности : 4:2:0
Битовая глубина : 8 бит
Тип развёртки : Прогрессивная
Метод сжатия : С потерями
Бит/(Пиксели*Кадры) : 0.225
Размер потока : 479 Мбайт (80%)
Библиотека кодирования : XviD 65
Аудио #1
Идентификатор : 1
Формат : AC-3
Формат/Информация : Audio Coding 3
Расширение режима : CM (complete main)
Параметр Endianness формата : Big
Идентификатор кодека : 2000
Продолжительность : 43 м.
Вид битрейта : Постоянный
Битрейт : 192 Кбит/сек
Каналы : 2 канала
Расположение каналов : Front: L R
Частота : 48,0 КГц
Частота кадров : 31,250 кадров/сек (1536 spf)
Метод сжатия : С потерями
Размер потока : 59,4 Мбайт (10%)
Выравнивание : Разделение по промежуткам
Продолжительность промежутка : 42 мс. (1,00 видеокадр)
Время предзагрузки промежутка : 500 мс.
Заголовок : Профессиональный (многоголосый закадровый) ТНТ
Аудио #2
Идентификатор : 2
Формат : AC-3
Формат/Информация : Audio Coding 3
Расширение режима : CM (complete main)
Параметр Endianness формата : Big
Идентификатор кодека : 2000
Продолжительность : 43 м.
Вид битрейта : Постоянный
Битрейт : 192 Кбит/сек
Каналы : 2 канала
Расположение каналов : Front: L R
Частота : 48,0 КГц
Частота кадров : 31,250 кадров/сек (1536 spf)
Метод сжатия : С потерями
Размер потока : 59,4 Мбайт (10%)
Выравнивание : Разделение по промежуткам
Продолжительность промежутка : 42 мс. (1,00 видеокадр)
Время предзагрузки промежутка : 500 мс.
Заголовок : Английский

Скриншоты


Вне форума [Профиль] [ЛС]
Показать сообщения:    
Ответить на тему

Текущее время: Сегодня 16:40

Часовой пояс: GMT + 3



Вы не можете начинать темы
Вы не можете отвечать на сообщения
Вы не можете редактировать свои сообщения
Вы не можете удалять свои сообщения
Вы не можете голосовать в опросах
Вы не можете прикреплять файлы к сообщениям
Вы не можете скачивать файлы