Сегодня идет свободное скачивание без начисления Download

Адреналин, Адреналин: Высокое напряжение / Crank, Crank: High Voltage (Марк Невелдайн, Брайан Тейлор) [2006 г., 2009 г., Боевик, триллер, драма, криминал, BDRip 720p]

Ответить на тему
 
Автор
Сообщение

zeke ®

Пол:

Стаж: 7 лет 7 месяцев

Сообщений: 95

Торрент-статистика

Пост 06-Мар-2011 20:15

[Цитировать]

Адреналин / Crank
Адреналин: Высокое напряжение / Crank: High Voltage
- Год выпуска: 2006, 2009
Страна: США
Жанр: Боевик, триллер, драма, криминал
Продолжительность: 01:27:42, 01:35:50
Перевод: Профессиональный (полное дублирование)
Режиссер: Марк Невелдайн, Брайан Тейлор
Продюссер: Гари Лучези, Том Розенберг, Скип Уильямсон
Сценарий: Марк Невелдайн, Брайан Тейлор
Бюджет:
Crank - $12 000 000
Crank: High Voltage - $20 000 000
Премьера в мире:
Crank - 31 августа 2006
Crank: High Voltage - 16 апреля 2009
Crank

Crank: High Voltage

В ролях: Джейсон Стэтхэм, Эми Смарт, Дуайт Йоакам, Эфрен Рамирез, Джуланн Чиди Хилл, Эди Гатеги, Гленн Хоуертон, Джей Ксала, Хосе Пабло Кантилльо, Рено Уилсон, Кион Янг, Арт Хсю, Джозеф Джулиан Сория
Адреналин:
Наемный убийца Чев узнает, что недоброжелатели отравили его редким китайским ядом и отрава начнет действовать немедленно, как только пульс перестанет биться ниже определенной отметки. И теперь Чеву нужно успеть сделать все свои дела, попробовать раздобыть противоядие и отомстить своим отравителям в прямом смысле слова впопыхах — стараясь создавать вокруг себя как можно более напряженную обстановку и не расслабляться ни на секунду.
Адреналин: Высокое напряжение:
Он умер, но обещал вернуться! Не чудом, а благодаря современным медицинским технологиям Чев Челиос получает новое сердце и новый шанс отомстить своим врагам. Теперь для постоянной подзарядки ему требуется электрический разряд мощностью не меньше, чем у автомобильного аккумулятора.

Адреналин

Качество: BDRip 720p
Контейнер: MKV
Видео кодек: H.264
Аудио кодек: AC3
Видео: 1280x704 (16:9), 23.976 fps, 4 509 Kbps, H.264, Profile High@L4.1
Аудио: AC3, Russian, 5.1 channels, 384kbps, 16 bits, 48.0 KHz

Адреналин: Высокое напряжение

Качество: BDRip 720p
Контейнер: MKV
Видео кодек: H.264
Аудио кодек: AC3
Видео: 1280x688 (16:9), 23.976 fps, 4 093 Kbps, H.264, Profile High@L4.1
Аудио: AC3, Russian, 5.1 channels, 384kbps, 16 bits, 48.0 KHz

MediaInfo Адреналин

General
Unique ID : 219688123456594760056077093388113736877 (0xA54664BEFAFB389EADB5B7BA47ECF4AD)
Complete name : E:\Адреналин (1, 2) [BDRip 720p] (2006, 2009)\Адреналин [BDRip 720p] (2006).mkv
Format : Matroska
File size : 3.00 GiB
Duration : 1h 27mn
Overall bit rate : 4 891 Kbps
Encoded date : UTC 2011-02-06 09:45:53
Writing application : mkvmerge v4.4.0 ('Die Wiederkehr') сборка от Oct 31 2010 21:52:48
Writing library : libebml v1.0.0 + libmatroska v1.0.0
Video
ID : 1
Format : AVC
Format/Info : Advanced Video Codec
Format profile : High@L4.1
Format settings, CABAC : Yes
Format settings, ReFrames : 16 frames
Format settings, GOP : M=1, N=48
Muxing mode : Header stripping
Codec ID : V_MPEG4/ISO/AVC
Duration : 1h 27mn
Bit rate : 4 509 Kbps
Width : 1 280 pixels
Height : 704 pixels
Display aspect ratio : 16:9
Frame rate : 23.976 fps
Color space : YUV
Chroma subsampling : 4:2:0
Bit depth : 8 bits
Scan type : Progressive
Bits/(Pixel*Frame) : 0.209
Stream size : 2.70 GiB (90%)
Title : Freeisland.HD
Writing library : x264 core 112 r1867 22bfd31
Encoding settings : cabac=1 / ref=16 / deblock=1:-1:-1 / analyse=0x3:0x133 / me=hex / subme=8 / psy=1 / psy_rd=1.00:0.15 / mixed_ref=1 / me_range=16 / chroma_me=1 / trellis=1 / 8x8dct=1 / cqm=0 / deadzone=21,11 / fast_pskip=1 / chroma_qp_offset=-3 / threads=2 / sliced_threads=0 / nr=0 / decimate=1 / interlaced=0 / constrained_intra=0 / bframes=8 / b_pyramid=2 / b_adapt=2 / b_bias=0 / direct=3 / weightb=1 / open_gop=0 / weightp=2 / keyint=250 / keyint_min=23 / scenecut=40 / intra_refresh=0 / rc_lookahead=50 / rc=2pass / mbtree=1 / bitrate=4509 / ratetol=1.0 / qcomp=0.60 / qpmin=0 / qpmax=51 / qpstep=4 / cplxblur=20.0 / qblur=0.5 / ip_ratio=1.40 / aq=1:1.00
Language : English
Audio
ID : 2
Format : AC-3
Format/Info : Audio Coding 3
Mode extension : CM (complete main)
Muxing mode : Header stripping
Codec ID : A_AC3
Duration : 1h 27mn
Bit rate mode : Constant
Bit rate : 384 Kbps
Channel(s) : 6 channels
Channel positions : Front: L C R, Side: L R, LFE
Sampling rate : 48.0 KHz
Bit depth : 16 bits
Compression mode : Lossy
Stream size : 241 MiB (8%)
Title : AC3, Russian, 5.1 channels, 384kbps, 16 bits, 48.0 KHz
Language : Russian

MediaInfo Адреналин: Высокое напряжение

General
Unique ID : 214346158259593188664744059781617291808 (0xA1419186F7068195B5FA373FB0D41220)
Complete name : E:\Адреналин (1, 2) [BDRip 720p] (2006, 2009)\Адреналин 2 [BDRip 720p] (2009).mkv
Format : Matroska
File size : 3.00 GiB
Duration : 1h 35mn
Overall bit rate : 4 476 Kbps
Encoded date : UTC 2011-02-20 19:08:48
Writing application : mkvmerge v4.4.0 ('Die Wiederkehr') сборка от Oct 31 2010 21:52:48
Writing library : libebml v1.0.0 + libmatroska v1.0.0
Video
ID : 1
Format : AVC
Format/Info : Advanced Video Codec
Format profile : High@L4.1
Format settings, CABAC : Yes
Format settings, ReFrames : 16 frames
Muxing mode : Header stripping
Codec ID : V_MPEG4/ISO/AVC
Duration : 1h 35mn
Bit rate : 4 093 Kbps
Width : 1 280 pixels
Height : 688 pixels
Display aspect ratio : 1.860
Frame rate : 23.976 fps
Color space : YUV
Chroma subsampling : 4:2:0
Bit depth : 8 bits
Scan type : Progressive
Bits/(Pixel*Frame) : 0.194
Stream size : 2.68 GiB (89%)
Title : Freeisland.HD
Writing library : x264 core 112 r1867 22bfd31
Encoding settings : cabac=1 / ref=16 / deblock=1:-1:-1 / analyse=0x3:0x133 / me=hex / subme=8 / psy=1 / psy_rd=1.00:0.15 / mixed_ref=1 / me_range=16 / chroma_me=1 / trellis=1 / 8x8dct=1 / cqm=0 / deadzone=21,11 / fast_pskip=1 / chroma_qp_offset=-3 / threads=2 / sliced_threads=0 / nr=0 / decimate=1 / interlaced=0 / constrained_intra=0 / bframes=8 / b_pyramid=2 / b_adapt=2 / b_bias=0 / direct=3 / weightb=1 / open_gop=0 / weightp=2 / keyint=250 / keyint_min=23 / scenecut=40 / intra_refresh=0 / rc_lookahead=50 / rc=2pass / mbtree=1 / bitrate=4093 / ratetol=1.0 / qcomp=0.60 / qpmin=0 / qpmax=51 / qpstep=4 / cplxblur=20.0 / qblur=0.5 / ip_ratio=1.40 / aq=1:1.00
Language : English
Audio
ID : 2
Format : AC-3
Format/Info : Audio Coding 3
Mode extension : CM (complete main)
Muxing mode : Header stripping
Codec ID : A_AC3
Duration : 1h 35mn
Bit rate mode : Constant
Bit rate : 384 Kbps
Channel(s) : 6 channels
Channel positions : Front: L C R, Side: L R, LFE
Sampling rate : 48.0 KHz
Bit depth : 16 bits
Compression mode : Lossy
Stream size : 263 MiB (9%)
Title : AC3, Russian, 5.1 channels, 384kbps, 16 bits, 48.0 KHz
Language : Russian
Сэмпл Адреналин / Сэмпл Адреналин: Высокое напряжение

Скриншоты

   -    


_________________
|LOST|
Вне форума [Профиль] [ЛС]

Dracula

Стаж: 4 года 1 месяц

Сообщений: 10089

Торрент-статистика

Пост 13-Мар-2011 14:06 (спустя 6 дней)

Топик был перенесен из форума Зарубежное кино (HD Video) в форум Антология (DVD, HD Video)

zeke
 
Показать сообщения:    
Ответить на тему

Текущее время: Сегодня 23:35

Часовой пояс: GMT + 3



Вы не можете начинать темы
Вы не можете отвечать на сообщения
Вы не можете редактировать свои сообщения
Вы не можете удалять свои сообщения
Вы не можете голосовать в опросах
Вы не можете прикреплять файлы к сообщениям
Вы не можете скачивать файлы