Сегодня идет свободное скачивание без начисления Download

Жан-Клод Ван Джонсон / Jean-Claude Van Johnson / Сезон: 1 / Серии: 1 из 5 (Питер Атенсио) [2016, Комедия, WEB-DLRip] DVO (NEON Studio)

Ответить на тему
 
Автор
Сообщение

Omen ®

Стаж: 6 лет 1 месяц

Сообщений: 184308

Торрент-статистика

Пост 23-Авг-2016 01:00

[Цитировать]

Жан-Клод Ван Джонсон / Jean-Claude Van Johnson
Год выпуска: 2016
Страна: США
Жанр: Комедия
Продолжительность: 1 x ~ 00:30:00
Перевод: Любительский (двухголосый закадровый) NEON Studio
Релиз: NEON Studio
Рип: oleg270877
Перевод: Руслан Раскопин и Роман Вольхин
Внимание! Присутствует реклама.
Режиссёр: Питер Атенсио
В ролях: Жан-Клод Ван Дамм, Кэт Фостер, Мойзес Ариас, Филисия Рашад, Бар Пали, Тим Пепер, Дерен Лерой, Кевин Майкл Уолш, Тейт Флетчер, Стэйси Дейнджер и др.
Описание: Создатели нового сериала «Жан-Клод Ван Джонсон» пытаются убедить зрителя в том, что на самом деле под всем известной фамилией Ван Дамм скрывается спецагент по фамилии Джонсон, который внешний вид актера использует исключительно для работы под прикрытием и успешного выполнения различных секретных операций. А свое очередное задание Джонсон выполняет, снимаясь в необычной версии «Приключений Гекельберри Финна».
Качество: WEB-DLRip
Формат: AVI
Видео: 720x400 (1.80:1), 23.976 fps, XviD build 50 ~1499 kbps avg, 0.22 bit/pixel
Аудио: 48 kHz, AC3 Dolby Digital, 2/0 (L,R) ch, ~192.00 kbps avg
Субтитры: Отсутствуют

MediaInfo

Общее
Полное имя : D:\Jean-Claude.Van.Johnson.s01.400р.WEBRip.NEONStudio\Jean-Claude.Van.Johnson.s01е00.400р.WEBRip.NEONStudio.avi
Формат : AVI
Формат/Информация : Audio Video Interleave
Размер файла : 379 Мбайт
Продолжительность : 31 м.
Общий поток : 1701 Кбит/сек
Программа кодирования : VirtualDubMod 1.5.10.3 (build 2550/release)
Библиотека кодирования : VirtualDubMod build 2550/release
Видео
Идентификатор : 0
Формат : MPEG-4 Visual
Профиль формата : Advanced Simple@L5
Параметр BVOP формата : 1
Параметр QPel формата : Нет
Параметр GMC формата : Без точки перехода
Параметр матрицы формата : Default (H.263)
Идентификатор кодека : XVID
Идентификатор кодека/Подсказка : XviD
Продолжительность : 31 м.
Битрейт : 1500 Кбит/сек
Ширина : 720 пикселей
Высота : 400 пикселей
Соотношение сторон : 16:9
Частота кадров : 23,976 кадра/сек
Цветовое пространство : YUV
Субдискретизация насыщенности : 4:2:0
Битовая глубина : 8 бит
Тип развёртки : Прогрессивная
Метод сжатия : С потерями
Бит/(Пиксели*Кадры) : 0.217
Размер потока : 334 Мбайт (88%)
Библиотека кодирования : XviD 1.2.1 (UTC 2008-12-04)
Аудио
Идентификатор : 1
Формат : AC-3
Формат/Информация : Audio Coding 3
Расширение режима : CM (complete main)
Параметр Endianness формата : Big
Идентификатор кодека : 2000
Продолжительность : 31 м.
Вид битрейта : Постоянный
Битрейт : 192 Кбит/сек
Каналы : 2 канала
Расположение каналов : Front: L R
Частота : 48,0 КГц
Битовая глубина : 16 бит
Метод сжатия : С потерями
Размер потока : 42,8 Мбайт (11%)
Выравнивание : Разделение по промежуткам
Продолжительность промежутка : 42 мс. (1,00 видеокадр)
Время предзагрузки промежутка : 500 мс.

Скриншоты




Вне форума [Профиль] [ЛС]
Показать сообщения:    
Ответить на тему

Текущее время: Сегодня 17:58

Часовой пояс: GMT + 3



Вы не можете начинать темы
Вы не можете отвечать на сообщения
Вы не можете редактировать свои сообщения
Вы не можете удалять свои сообщения
Вы не можете голосовать в опросах
Вы не можете прикреплять файлы к сообщениям
Вы не можете скачивать файлы