Сегодня идет свободное скачивание без начисления Download

Без обязательств / Casual / Сезон: 1 / Серии: 1-10 из 10 (Джейсон Райтман, Майкл Уивер, Фред Сэвэдж) [2015, США, драма, комедия, WEBRip 720p] MVO (Baibako) + Original

Ответить на тему
 
Автор
Сообщение

Omen ®

Стаж: 5 лет 6 месяцев

Сообщений: 186946

Торрент-статистика

Пост 21-Авг-2016 01:01

[Цитировать]

Без обязательств / Casual
Год выпуска: 2015
Страна: США
Жанр: драма, комедия
Продолжительность: ~ 25 мин
Перевод: Профессиональный (многоголосый закадровый) [Baibako]
Режиссёр: Джейсон Райтман, Майкл Уивер, Фред Сэвэдж
В ролях: Микейла Уоткинс, Томми Дьюи, Тара Барр, Джули Берман, Няша Хатенди, Зак Орт, Фред Меламед, Фрэнсис Конрой, Патрик Хьюсингер
Ссылка на предыдущие и альтернативные раздачи: [url=tracker.php?f=189,2366&nm=Casual]http:///*spam*//forum/tracker.php?f=189,2366&nm=Casual[/url]
Сэмпл: http://multi-up.com/1114589
Качество: WEBRip 720p
Контейнер: MKV
Видео: x264, 1280x720 (16:9), 23,976 fps, ~2681 kbps
Аудио: Russian, AC3, 48 kHz, 2 ch, 384 kbps
Аудио 2: English, AC3, 48 kHz, 2 ch, 384 kbps
Субтитры: отсутствуют
Внимание: Релиз содержит рекламные голосовые и видеовставки

MediaInfo

Общее
Уникальный идентификатор : 206769848166599853766750374959286890231 (0x9B8E6C998DC897E6A2E1C74A8FFCAEF7)
Полное имя : D:\MyRelis\Casual--\Casual.s01e01.HD720p.WEBRip.Rus.Eng.BaibaKo.tv.mkv
Формат : Matroska
Версия формата : Version 4 / Version 2
Размер файла : 641 Мбайт
Продолжительность : 25 м.
Общий поток : 3512 Кбит/сек
Дата кодирования : UTC 2015-10-09 10:25:10
Программа кодирования : mkvmerge v8.4.0 ('A better way to fly') 64bit
Библиотека кодирования : libebml v1.3.1 + libmatroska v1.4.2
DURATION : 00:25:31.168000000
NUMBER_OF_FRAMES : 47849
NUMBER_OF_BYTES : 73496064
_STATISTICS_WRITING_APP : mkvmerge v8.4.0 ('A better way to fly') 64bit
_STATISTICS_WRITING_DATE_UTC : 2015-10-09 10:25:10
_STATISTICS_TAGS : BPS DURATION NUMBER_OF_FRAMES NUMBER_OF_BYTES
Видео
Идентификатор : 1
Формат : AVC
Формат/Информация : Advanced Video Codec
Профиль формата : High@L3.1
Параметр CABAC формата : Да
Параметр ReFrames формата : 5 кадров
Идентификатор кодека : V_MPEG4/ISO/AVC
Продолжительность : 25 м.
Битрейт : 2681 Кбит/сек
Ширина : 1280 пикселей
Высота : 720 пикселей
Соотношение сторон : 16:9
Режим частоты кадров : Постоянный
Частота кадров : 23,976 кадра/сек
Цветовое пространство : YUV
Субдискретизация насыщенности : 4:2:0
Битовая глубина : 8 бит
Тип развёртки : Прогрессивная
Бит/(Пиксели*Кадры) : 0.121
Размер потока : 488 Мбайт (76%)
Библиотека кодирования : x264 core 142 r2479 dd79a61
Настройки программы : cabac=1 / ref=3 / deblock=1:0:0 / analyse=0x3:0x113 / me=hex / subme=7 / psy=1 / psy_rd=1.00:0.00 / mixed_ref=1 / me_range=16 / chroma_me=1 / trellis=1 / 8x8dct=1 / cqm=0 / deadzone=21,11 / fast_pskip=1 / chroma_qp_offset=-2 / threads=12 / lookahead_threads=2 / sliced_threads=0 / nr=0 / decimate=1 / interlaced=0 / bluray_compat=0 / constrained_intra=0 / bframes=3 / b_pyramid=2 / b_adapt=1 / b_bias=0 / direct=1 / weightb=1 / open_gop=0 / weightp=2 / keyint=240 / keyint_min=24 / scenecut=40 / intra_refresh=0 / rc_lookahead=40 / rc=2pass / mbtree=1 / bitrate=2681 / ratetol=1.0 / qcomp=0.60 / qpmin=0 / qpmax=69 / qpstep=4 / cplxblur=20.0 / qblur=0.5 / vbv_maxrate=17500 / vbv_bufsize=17500 / nal_hrd=none / filler=0 / ip_ratio=1.40 / aq=1:1.00
Default : Нет
Forced : Нет
Аудио #1
Идентификатор : 2
Формат : AC-3
Формат/Информация : Audio Coding 3
Расширение режима : CM (complete main)
Параметр Endianness формата : Big
Идентификатор кодека : A_AC3
Продолжительность : 25 м.
Вид битрейта : Постоянный
Битрейт : 384 Кбит/сек
Каналы : 2 канала
Расположение каналов : Front: L R
Частота : 48,0 КГц
Метод сжатия : С потерями
Размер потока : 70,1 Мбайт (11%)
Язык : Russian
Default : Да
Forced : Нет
Аудио #2
Идентификатор : 3
Формат : AC-3
Формат/Информация : Audio Coding 3
Расширение режима : CM (complete main)
Параметр Endianness формата : Big
Идентификатор кодека : A_AC3
Продолжительность : 25 м.
Вид битрейта : Постоянный
Битрейт : 384 Кбит/сек
Каналы : 2 канала
Расположение каналов : Front: L R
Частота : 48,0 КГц
Метод сжатия : С потерями
Размер потока : 70,1 Мбайт (11%)
Язык : English
Default : Нет
Forced : Нет

Скриншоты


Вне форума [Профиль] [ЛС]
Показать сообщения:    
Ответить на тему

Текущее время: Сегодня 00:08

Часовой пояс: GMT + 3



Вы не можете начинать темы
Вы не можете отвечать на сообщения
Вы не можете редактировать свои сообщения
Вы не можете удалять свои сообщения
Вы не можете голосовать в опросах
Вы не можете прикреплять файлы к сообщениям
Вы не можете скачивать файлы