Сегодня идет свободное скачивание без начисления Download

Миссия невыполнима / Mission: Impossible / Сезон: 1, 2 (2) / Серии: 35 из 35 (Колин Баддс, Арч Николсон, Дон Чэффи) [1988, боевик, триллер, драма, криминал, приключения, SATRip] MVO

Ответить на тему
 
Автор
Сообщение

Omen ®

Стаж: 5 лет 7 месяцев

Сообщений: 185412

Торрент-статистика

Пост 19-Авг-2016 01:00

[Цитировать]

Миссия невыполнима / Mission: Impossible
Год выпуска: 1988 - 1990
Страна: США
Жанр: боевик, триллер, драма, криминал, приключения
Продолжительность: 00:48
Перевод: Профессиональный (многоголосый закадровый)
Режиссёр: Колин Баддс, Арч Николсон, Дон Чэффи
В ролях: Питер Грейвз,
Таао Пенглис,
Энтони Хэмилтон,
Фил Моррис,
Боб Джонсон,
Джейн Бэдлер,
Терри Маркуэлл,
Грег Моррис
Описание: Группа оперативников, подчиняющаяся таинственному «министру», выполняет крайне сложные задания: предотвращение убийства политиков и ученых, срыв планов мафиози, мошенников, шпионов и диктаторов, возврат украденных ценностей, секретных документов и приборов… и множество других заданий.
Доп. информация:
Серии:
1-14
1-15
1-16
1-17
2-1
2-13
Первые 1-3 минуты отсутствуют.
Сэмпл: http://multi-up.com/1114267
Качество: SATRip
Формат: AVI
Видео: XviD MPEG-4, 720x576, 5:4, 25 fps, 1200 kbs
Аудио: MPEG Layer 3, 44.100 kHz, 2 ch, 192 kbs
Субтитры: нет

MediaInfo

Format : AVI
Format/Info : Audio Video Interleave
File size : 465 MiB
Duration : 46mn 26s
Overall bit rate : 1 401 Kbps
Writing application : VirtualDubMod 1.5.10.3 | www.virtualdub-fr.org || (build 2550/release)
Writing library : VirtualDubMod build 2550/release
Video
ID : 0
Format : MPEG-4 Visual
Format profile : Advanced Simple@L5
Format settings, BVOP : 2
Format settings, QPel : No
Format settings, GMC : No warppoints
Format settings, Matrix : Default (H.263)
Muxing mode : Packed bitstream
Codec ID : XVID
Codec ID/Hint : XviD
Duration : 46mn 26s
Bit rate : 1 199 Kbps
Width : 720 pixels
Height : 576 pixels
Display aspect ratio : 5:4
Frame rate : 25.000 fps
Standard : PAL
Color space : YUV
Chroma subsampling : 4:2:0
Bit depth : 8 bits
Scan type : Progressive
Compression mode : Lossy
Bits/(Pixel*Frame) : 0.116
Stream size : 398 MiB (86%)
Writing library : XviD 1.2.1 (UTC 2008-12-04)
Audio
ID : 1
Format : MPEG Audio
Format version : Version 1
Format profile : Layer 3
Codec ID : 55
Codec ID/Hint : MP3
Duration : 46mn 26s
Bit rate mode : Constant
Bit rate : 192 Kbps
Channel(s) : 2 channels
Sampling rate : 44.1 KHz
Compression mode : Lossy
Stream size : 63.8 MiB (14%)
Alignment : Split accross interleaves
Interleave, duration : 40 ms (1.00 video frame)
Interleave, preload duration : 500 ms
Writing library : LAME3.99r
Encoding settings : -m s -V 4 -q 2 -lowpass 18.6 -b 192

Скриншоты

Вне форума [Профиль] [ЛС]
Показать сообщения:    
Ответить на тему

Текущее время: Сегодня 10:44

Часовой пояс: GMT + 3



Вы не можете начинать темы
Вы не можете отвечать на сообщения
Вы не можете редактировать свои сообщения
Вы не можете удалять свои сообщения
Вы не можете голосовать в опросах
Вы не можете прикреплять файлы к сообщениям
Вы не можете скачивать файлы