Сегодня идет свободное скачивание без начисления Download

Рождение мафии: Чикаго / The Making of the Mob: Chicago / Сезон: 2 / Серии: 1-5 из 8 (Джон Илер) [2016, Документальный, WEB-DLRip] MVO (LostFilm)

Ответить на тему
 
Автор
Сообщение

Omen ®

Стаж: 5 лет 7 месяцев

Сообщений: 185427

Торрент-статистика

Пост 17-Авг-2016 01:00

[Цитировать]

Рождение мафии: Чикаго / The Making of the Mob: Chicago
Год выпуска: 2016
Страна: США
Жанр: Документальный
Продолжительность: 00:43:00
Перевод: Профессиональный (многоголосый закадровый) LostFilm
Режиссёр: Джон Илер
В ролях: Оуэн Блэк, Джейсон Фитч, Michael Kotsohilis, Паоло Ротондо, Эмметт Скилтон, George Harrison Xanthis, Дэвид Кэпстик, Рут Винн, Джонатан Эйг, Оскар Гудман и др.
Описание: «Рождение мафии: Чикаго» - это документальный игровой телесериал о преступной империи известного гангстера Аль Капоне. Действие будет разворачиваться в 20-м столетии и начнется с нью-йорского периода преступной карьеры гангстера. Потом перенесется в Чикаго, где в будущем легендарная личность начнет проворачивать нечистые подпольные дела. С принятием Сухого закона чикагские шайки кинутся делить рынок нелегальных алкогольных напитков, и команда Капоне решит урвать самый больший куш… Жестокие расправы и безмерные вольности, а также рост влияния Капоне вызовут гнев президента Герберта Гувера, который не будет медлить в принятии ответных мер.
Сэмпл: http://multi-up.com/1113991
Качество: WEB-DLRip
Формат: AVI
Видео: 720x400 (16:9), 23.976 fps, XviD, 1316 Кбит/сек, 0.22 bit/pixel
Аудио: 48 kHz, MPEG Layer 3, 2 ch, 192 Кбит/сек
Субтитры: отсутствуют

MediaInfo

Формат : AVI
Формат/Информация : Audio Video Interleave
Размер файла : 469 Мбайт
Продолжительность : 43 м.
Режим общего битрейта : Переменный
Общий поток : 1518 Кбит/сек
Программа кодирования : Nandub v1.0rc2
Библиотека кодирования : Nandub build 1853/release
Видео
Идентификатор : 0
Формат : MPEG-4 Visual
Профиль формата : Advanced Simple@L5
Параметр BVOP формата : Нет
Параметр QPel формата : Нет
Параметр GMC формата : Без точки перехода
Параметр матрицы формата : Default (H.263)
Идентификатор кодека : XVID
Идентификатор кодека/Подсказка : XviD
Продолжительность : 43 м.
Битрейт : 1316 Кбит/сек
Ширина : 720 пикселей
Высота : 400 пикселей
Соотношение сторон : 16:9
Частота кадров : 23,976 (23976/1000) кадра/сек
Цветовое пространство : YUV
Субдискретизация насыщенности : 4:2:0
Битовая глубина : 8 бит
Тип развёртки : Прогрессивная
Метод сжатия : С потерями
Бит/(Пиксели*Кадры) : 0.191
Размер потока : 407 Мбайт (87%)
Библиотека кодирования : XviD 1.2.1 (UTC 2008-12-04)
Аудио
Идентификатор : 1
Формат : MPEG Audio
Версия формата : Version 1
Профиль формата : Layer 3
Режим : Joint stereo
Расширение режима : MS Stereo
Идентификатор кодека : 55
Идентификатор кодека/Подсказка : MP3
Продолжительность : 43 м.
Вид битрейта : Переменный
Битрейт : 192 Кбит/сек
Каналы : 2 канала
Частота : 48,0 КГц
Метод сжатия : С потерями
Размер потока : 58,3 Мбайт (12%)
Выравнивание : Соединение по промежуткам
Продолжительность промежутка : 24 мс. (0,58 видеокадр)
Время предзагрузки промежутка : 484 мс.
Библиотека кодирования : LAME3.97b
Настройки программы : -m j -V 4 -q 3 -lowpass 18.6 --abr 192

Скриншоты

Вне форума [Профиль] [ЛС]
Похожие темы
Форум Тема Автор Торрент Отв. Посл. сообщение
./templates/default/images/folder_dl.gif Приключения и квесты Christmas Stories 5: The Gift of the Magi [CE] / Рождественские истории 5: Дары Волхвов [КИ] [P] [RUS / ENG] (2016) Omen
1 | 0

0 | 3543

6

2016-12-04 01:01
Omen Последнее
Показать сообщения:    
Ответить на тему

Текущее время: Сегодня 13:43

Часовой пояс: GMT + 3



Вы не можете начинать темы
Вы не можете отвечать на сообщения
Вы не можете редактировать свои сообщения
Вы не можете удалять свои сообщения
Вы не можете голосовать в опросах
Вы не можете прикреплять файлы к сообщениям
Вы не можете скачивать файлы