Today is a free download without charge Download

Cнайпер: воин призрак / Снайпер: призрачный стрелок / Sniper: Ghost Shooter (Дон Майкл Пол) [2016, Боевик, Драма, Военный, WEB-DLRip]

Reply to topic
DL-List and Torrent activity
Size:  1.37 GB   |    Registered:  2 years 8 months   |    Completed:  42 times
Seeders:  74  [  0 KB/s  ]   Leechers:  2  [  0 KB/s  ]   Show peers in full details
 
   
 
 
Author
Message

Russian Mafia ®

Gender:

Longevity: 4 years

Posts: 339

Торрент-статистика

Post 12-Aug-2016 22:33

[Quote]

Производство: США, UFO International Productions
Жанр: Боевик, Драма, Военный
Режиссер: Дон Майкл Пол
Актеры: Билли Зейн, Дэннис Хэйсбёрт, Стефани Вогт, Чад Коллинз, Ник Гомес, Пресцилиана Эспаролини, Энок Фрост, Найджел Барбер, Велислав Павлов
Описание:
Элитные снайперы Брэндон Беккет и Ричард Миллер должны выполнить очередную задачу, защитив линию газопровода от захвата террористов. Когда герои понимают, что противник знает их точное место расположения, у них появляются подозрения о том, что кто-то из их руководства информирует террористов.
Продолжительность: 01:39:07
Качество видео: WEB-DLRip
Перевод: Профессиональный многоголосый (iTunes)
Видео: XviD, 720x400 (1.80:1), 23.976 fps, ~1581 Kbps
Аудио: AC3, 6 ch, 384 Kbps

Mediainfo:

Код:
Общее
Полное имя                               : D:Sniper.2O16.P.WEB-DLRip.1400MB.avi
Формат                                   : AVI
Формат/Информация                        : Audio Video Interleave
Размер файла                             : 1,37 Гбайт
Продолжительность                        : 1 ч. 39 м.
Общий поток                              : 1974 Кбит/сек
Программа кодирования                    : VirtualDubMod 1.5.10.2 (build 2540/release)
Библиотека кодирования                   : VirtualDubMod build 2540/release
Видео
Идентификатор                            : 0
Формат                                   : MPEG-4 Visual
Профиль формата                          : Advanced Simple@L5
Параметр BVOP формата                    : 2
Параметр QPel формата                    : Нет
Параметр GMC формата                     : Без точки перехода
Параметр матрицы формата                 : Default (MPEG)
Идентификатор кодека                     : XVID
Идентификатор кодека/Подсказка           : XviD
Продолжительность                        : 1 ч. 39 м.
Битрейт                                  : 1581 Кбит/сек
Ширина                                   : 720 пикселей
Высота                                   : 400 пикселей
Соотношение сторон                       : 16:9
Частота кадров                           : 23,976 кадра/сек
Цветовое пространство                    : YUV
Субдискретизация насыщенности            : 4:2:0
Битовая глубина                          : 8 бит
Тип развёртки                            : Прогрессивная
Метод сжатия                             : С потерями
Бит/(Пиксели*Кадры)                      : 0.229
Размер потока                            : 1,09 Гбайт (80%)
Библиотека кодирования                   : XviD 1.2.1 (UTC 2008-12-04)
Аудио
Идентификатор                            : 1
Формат                                   : AC-3
Формат/Информация                        : Audio Coding 3
Расширение режима                        : CM (complete main)
Параметр Endianness формата              : Big
Идентификатор кодека                     : 2000
Продолжительность                        : 1 ч. 39 м.
Вид битрейта                             : Постоянный
Битрейт                                  : 384 Кбит/сек
Каналы                                   : 6 каналов
Расположение каналов                     : Front: L C R, Side: L R, LFE
Частота                                  : 48,0 КГц
Битовая глубина                          : 16 бит
Метод сжатия                             : С потерями
Размер потока                            : 272 Мбайт (19%)
Выравнивание                             : Разделение по промежуткам
Продолжительность промежутка             : 42  мс. (1,00 видеокадр)
Время предзагрузки промежутка            : 500  мс.

Скриншоты

       
[darkos.club].t300951.torrent 
Torrent: Registered   [ 2016-08-12 22:33 ]

Download

14 KB

Воспроизвести онлайн

Status: T temporary
Completed: 42 times
Size: 1.37 GB, InfoHash (Google it!)
Score:  5 (vote: 1)
Default: 9  Thank you   (list)
 
Other forum [Profile] [PM]
Display posts from previous:    
Reply to topic

The time now is: Today 03:46

All times are GMT + 3 Hours



You cannot post new topics in this forum
You cannot reply to topics in this forum
You cannot edit your posts in this forum
You cannot delete your posts in this forum
You cannot vote in polls in this forum
You cannot attach files in this forum
You can download files in this forum