Сегодня идет свободное скачивание без начисления Download

Сосны / Уэйворд Пайнс / Уэйуорд Пайнс / Wayward Pines (2016) (сезон 2, серии 1-10 из 10) [WEB-DL 1080p] LostFilm

Ответить на тему
 
Автор
Сообщение

Russian Mafia ®

Пол:

Стаж: 3 года 7 месяцев

Сообщений: 343

Торрент-статистика

Пост 11-Авг-2016 15:13

[Цитировать]

Производство: США, Blinding Edge Pictures, De Line Pictures, FX Productions, Storyland
Жанр: фантастика, триллер, драма, детектив
Режиссер: Дэвид Петрарка
Актеры: Джейсон Патрик, Нимрат Каур, Джош Хилман, Том Стивенс, Кейси Рол, Хоуп Дэвис, Джимон Хонсу, Карла Гуджино, Чарли Тахэн, Терренс Ховард и др.
Описание:
Власть в Уэйворд Пайнс захватило Первое поколение - люди, которые родились здесь. Они правят железной рукой, и такая ситуация не устраивает Бена, сына Итана Бёрка. Бен вместе со своими соратниками организовывает движение сопротивления. Вместо того, чтобы противостоять абби, люди продолжают воевать друг с другом.

Релиз от: LostFilm
Продолжительность: ~ 00:44:00 серия
Качество видео: WEB-DL Сэмпл
Перевод: Профессиональный многоголосый закадровый - LostFilm
Вид субтитров: вшитые отключаемые
Язык субтитров: английский
Формат: MKV
Видео: AVC/H.264, 1920x1080 (16:9), ~4695 Kbps
Аудио Rus: AC3, 384 kbps, 2 ch, 48 kHz
Аудио Eng: AC3, 384 kbps, 6 ch, 48 kHz

MediaInfo

Код:
Общее
Wayward Pines - Уэйуорд Пайнс. Сезон 2. LostFilm. 1080p\Wayward.Pines.S02E01.1080p.Rus.Eng.LostFilm.mkv
Формат                                   : Matroska
Версия формата                           : Version 4 / Version 2
Размер файла                             : 1,75 Гбайт
Продолжительность                        : 44 м.
Общий поток                              : 5573 Кбит/сек
Название фильма                          : Wayward Pines s02e01 @ NNM-Club
Дата кодирования                         : UTC 2016-05-29 01:52:28
Программа кодирования                    : mkvmerge v6.9.1 ('Blue Panther') 64bit built on Apr 18 2014 18:23:38
Библиотека кодирования                   : libebml v1.3.0 + libmatroska v1.4.1
Видео
Идентификатор                            : 1
Формат                                   : AVC
Формат/Информация                        : Advanced Video Codec
Профиль формата                          : High@L4
Параметр CABAC формата                   : Да
Параметр ReFrames формата                : 4 кадра
Идентификатор кодека                     : V_MPEG4/ISO/AVC
Продолжительность                        : 44 м.
Битрейт                                  : 4695 Кбит/сек
Ширина                                   : 1920 пикселей
Высота                                   : 1080 пикселей
Соотношение сторон                       : 16:9
Режим частоты кадров                     : Постоянный
Частота кадров                           : 23,976 кадра/сек
Цветовое пространство                    : YUV
Субдискретизация насыщенности            : 4:2:0
Битовая глубина                          : 8 бит
Тип развёртки                            : Прогрессивная
Бит/(Пиксели*Кадры)                      : 0.094
Размер потока                            : 1,47 Гбайт (84%)
Язык                                     : English
Default                                  : Да
Forced                                   : Нет
Цветовой диапазон                        : Limited
Основные цвета                           : BT.709
Характеристики трансфера                 : BT.709
Коэффициенты матрицы                     : BT.709
Аудио #1
Идентификатор                            : 2
Формат                                   : AC-3
Формат/Информация                        : Audio Coding 3
Расширение режима                        : CM (complete main)
Параметр Endianness формата              : Big
Идентификатор кодека                     : A_AC3
Продолжительность                        : 44 м.
Вид битрейта                             : Постоянный
Битрейт                                  : 384 Кбит/сек
Каналы                                   : 2 канала
Расположение каналов                     : Front: L R
Частота                                  : 48,0 КГц
Метод сжатия                             : С потерями
Размер потока                            : 123 Мбайт (7%)
Язык                                     : Russian
Default                                  : Да
Forced                                   : Нет
Аудио #2
Идентификатор                            : 3
Формат                                   : AC-3
Формат/Информация                        : Audio Coding 3
Расширение режима                        : CM (complete main)
Параметр Endianness формата              : Big
Идентификатор кодека                     : A_AC3
Продолжительность                        : 44 м.
Вид битрейта                             : Постоянный
Битрейт                                  : 384 Кбит/сек
Каналы                                   : 6 каналов
Расположение каналов                     : Front: L C R, Side: L R, LFE
Частота                                  : 48,0 КГц
Метод сжатия                             : С потерями
Размер потока                            : 123 Мбайт (7%)
Язык                                     : English
Default                                  : Нет
Forced                                   : Нет
Текст
Идентификатор                            : 4
Формат                                   : UTF-8
Идентификатор кодека                     : S_TEXT/UTF8
Идентификатор кодека/Информация          : UTF-8 Plain Text
Язык                                     : English
Default                                  : Нет
Forced                                   : Нет

Список серий

01. Enemy Lines / В тылу врага
02. Blood Harvest / Кровавая жатва
03. Once Upon a Time in Wayward Pines / Однажды в Уэйуорд Пайнс
04. Exit Strategy / Стратегия отступления
05. Sound the Alarm / Бей тревогу
06. City Upon a Hill / Город на холме
07. Time Will Tell / Время покажет
08. Pass Judgment / Осуждение
09. Walcott Prep / Академия Уолкотт
10. Bedtime Story / Сказка перед сном

Скриншоты

       
Вне форума [Профиль] [ЛС]
Показать сообщения:    
Ответить на тему

Текущее время: Сегодня 23:44

Часовой пояс: GMT + 3



Вы не можете начинать темы
Вы не можете отвечать на сообщения
Вы не можете редактировать свои сообщения
Вы не можете удалять свои сообщения
Вы не можете голосовать в опросах
Вы не можете прикреплять файлы к сообщениям
Вы не можете скачивать файлы