Сегодня идет свободное скачивание без начисления Download

Байки из склепа / Tales from the Crypt / Сезон 3 / Серии: 1 (14) (Гилберт Адлер \\ Gilbert Adler) [1991 г., ужасы, черная комедия, DVDRip] VO (Russianguy27) + Original

Ответить на тему
 
Автор
Сообщение

Omen ®

Стаж: 5 лет 9 месяцев

Сообщений: 184433

Торрент-статистика

Пост 11-Авг-2016 01:01

[Цитировать]

Байки из склепа
Tales from the Crypt

Сезон: 3 / Эпизодов: 1 (14)- Год выпуска: 1991
Страна: США
Жанр: ужасы, черная комедия
Продолжительность: 30 минут (эпизод)
Перевод: Любительский (одноголосый закадровый) - [RussianGuy27]
Русские субтитры: нет
Режиссеры: Гилберт Адлер \ Gilbert Adler
В ролях: Эндрю МакКарти, Мэриэл Хемингуэй, Дэвид Хэммингс, Майкл Дж. Фокс, Кайл Маклахлан, Терри Гарр, Бруно Кирби, Малколм Макдауэл, Тим Рот, Джон Гловер, Бо Бриджес, Тони Голдуин, Вупи Голдберг, Джон Райс Дейвис, Джеймс Ремар, Ричард Джордан, Джон Полито, Фэй Грант, Энтони Ла Палья, Кирк Дуглас, Эрик Дуглас, Лэнс Хенриксен, Дэн Айкройд и др.
Описание:
«Байки из склепа» — телесериал, созданный по мотивам комиксов Уильяма М. Гейнса, составленный из более чем полусотни сюжетов, представляющих собой короткие страшно юморные истории, рассказанные от лица симпатичного обитателя склепа, сопровождаемые его едкими, зловонными комментариями.
В основе сериала лежат отличные друг от друга истории, но объединённые одной темой — людьми, которые совершают, как правило, «плохие» и «нехорошие» поступки и, в результате совершения этих поступков, поплатившихся за их совершение.
Релиз подготовлен по многочисленным просьбам-Огромная благодарность *Sergeant_am* за предоставление очень качественных рипов-Внимание: в сериале присутствует нецензурная лексика, распитие алкогольных напитков, демонстрация обнаженного тела, насилие и убийства!-IMDB User Rating: 8.1/10-Релиз от: -Качество: DVDRip
Формат: AVI
Видео кодек: DivX5
Аудио кодек: AC3
Видео: 640:480 (4:2:0), 23.976 fps, 2000 kbps avg, 0.272 bit/pixel
Аудио #1: 48 kHz, AC3 (2 ch), 192.00 kbps avg | Русский | RussianGuy27
Аудио #2: 48 kHz, AC3 (2 ch), 192.00 kbps avg | Английский | Оригинал-СЭМПЛ
-

Список эпизодов

-Эпизод 1:
Loved to death
(Любовь до гроба)
Пояснение к серии:
- Постер "Эта замечательная жизнь." Классика снятая режисером Френком Капра;
- Ларри Бёрд - американский баскетболист из штата Индиана;
- Слэм-данк - вид броска в баскетболе.
-Эпизод 2:
Carrion death
(Смерть падали)
Пояснение к серии:
--Эпизод 3:
The trap
(Афера)-Эпизод 4:
Abra cadaver
(Абра-кадабра, кадавр)-Эпизод 5:
Top billing
(Главная роль)
Пояснение к серии:
--Эпизод 6:
Dead wait
(Ожидание смерти подобно)
Пояснение к серии:
--Эпизод 7:
The reluctant vampire
(Упрямый вампир)-Эпизод 8:
Easel kill ya
(Палитра убийства)-Эпизод 9:
Undertaking palor
(Похоронное бюро)-Эпизод 10:
Mournin' mess
(Поминальная трапеза)-Эпизод 11:
Split second
(Щепки летят)-Эпизод 12:
Deadline
(Крайний срок)-Эпизод 13:
Spoiled
(Испорченные)
Пояснение к серии:
--Эпизод 14:
Yellow
(Трусость)-
--

Скриншоты

-

Как качать

Внимание! Раздача ведётся путём добавления новых серий; при каждом добавлении создаётся новый торрент. Чтобы начать докачку новой серии, пользователям необходимо сделать следующее:
(1) остановить скачивание,
(2) удалить старый торрент у себя из клиента (старые серии удалять не надо),
(3) скачать новый торрент и запустить его у себя в клиенте вместо старого, при этом указать клиенту путь в старую папку куда и должно происходить скачивание новых серий.
Ваш клиент при этом должен произвести хеширование (проверку) старой папки (если не производит сам - помогите ему сделать это), и будет докачивать только те серии которых у вас ещё нет. Старые серии при этом не удаляются, а продолжают раздаваться!
Eсли вы уже удалили старые серии, то предотвратить повторную закачку старых серий можно, отжав галочку в соответствующих местах при запуске нового торрента. По возможности, желательно не удалять старые серии как можно дольше чтобы релизёр не столько продолжал раздавать старые серии, а смог сконцентрироваться на новых.
-

MediaInfo

Format : AVI
Format/Info : Audio Video Interleave
File size : 487 MiB
Duration : 28mn 23s
Overall bit rate : 2 398 Kbps
Writing application : VirtualDubMod 1.5.10.2 (build 2540/release)
Writing library : VirtualDubMod build 2540/release
Video
ID : 0
Format : MPEG-4 Visual
Format profile : Advanced Simple@L5
Format settings, BVOP : 1
Format settings, QPel : No
Format settings, GMC : No warppoints
Format settings, Matrix : Default (H.263)
Codec ID : DX50
Codec ID/Hint : DivX 5
Duration : 28mn 23s
Bit rate : 2 000 Kbps
Width : 640 pixels
Height : 480 pixels
Display aspect ratio : 4:3
Frame rate : 23.976 fps
Color space : YUV
Chroma subsampling : 4:2:0
Bit depth : 8 bits
Scan type : Progressive
Compression mode : Lossy
Bits/(Pixel*Frame) : 0.272
Stream size : 406 MiB (83%)
Writing library : XviD 1.2.1 (UTC 2008-12-04)
Audio #1
ID : 1
Format : AC-3
Format/Info : Audio Coding 3
Mode extension : CM (complete main)
Format settings, Endianness : Big
Codec ID : 2000
Duration : 28mn 23s
Bit rate mode : Constant
Bit rate : 192 Kbps
Channel(s) : 2 channels
Channel positions : Front: L R
Sampling rate : 48.0 KHz
Bit depth : 16 bits
Compression mode : Lossy
Stream size : 39.0 MiB (8%)
Alignment : Split accross interleaves
Interleave, duration : 42 ms (1.00 video frame)
Interleave, preload duration : 500 ms
Audio #2
ID : 2
Format : AC-3
Format/Info : Audio Coding 3
Format profile : Dolby Digital
Mode extension : CM (complete main)
Format settings, Endianness : Big
Codec ID : 2000
Duration : 28mn 23s
Bit rate mode : Constant
Bit rate : 192 Kbps
Channel(s) : 2 channels
Channel positions : Front: L R
Sampling rate : 48.0 KHz
Bit depth : 16 bits
Compression mode : Lossy
Stream size : 39.0 MiB (8%)
Alignment : Split accross interleaves
Interleave, duration : 42 ms (1.00 video frame)
Interleave, preload duration : 500 ms
-Также там есть весь перечень переведенных мной фильмов и те, которые планируются в ближайшее время.-Приятного просмотра!--
Вне форума [Профиль] [ЛС]
Показать сообщения:    
Ответить на тему

Текущее время: Сегодня 19:32

Часовой пояс: GMT + 3



Вы не можете начинать темы
Вы не можете отвечать на сообщения
Вы не можете редактировать свои сообщения
Вы не можете удалять свои сообщения
Вы не можете голосовать в опросах
Вы не можете прикреплять файлы к сообщениям
Вы не можете скачивать файлы