Сегодня идет свободное скачивание без начисления Download

Люцифер / Lucifer (2015) (сезон 1, серии 1-13 из 13) [WEB-DLRip 1080p] LostFilm

Ответить на тему
 
Автор
Сообщение

Russian Mafia ®

Пол:

Стаж: 3 года 3 месяца

Сообщений: 343

Торрент-статистика

Пост 10-Авг-2016 18:16

[Цитировать]

Люцифер / Lucifer Производство: США
Жанр: фэнтези, драма, криминал
Режиссер: Лен Уайзман
Актеры: Том Эллис, Лорен Джерман, Кевин Алехандро, Д.Б. Вудсайд, Лесли-Энн Брандт, Рэйчел Харрис, Кайла Юэлл, Скарлет Эстевез, Джонатан Салисбери, Мэтт Корбой и др.
Описание:
«Люцифер» — это процедурная драмеди канала Fox, основанная на истории персонажа из комиксов Нила Геймана. Главный герой проекта, Люцифер Денница, — не кто иной, как сам дьявол, от скуки покинувший ад и поселившийся в современном Лос-Анджелесе. Создатели шоу пригласили на эту роль жгучего валлийца Тома Эллиса, в результате чего оригинальный персонаж Геймана, изначально срисованный с Дэвида Боуи, заиграл новыми красками и превратился в человеческое воплощение всех запретных удовольствий на Земле. По духу сериал напоминает микс из «Касла» (Castle), «Сверхъестественного» (Supernatural) и «Калифорникейшн» (Californication), а значит, он придется по душе всем поклонникам легкого развлекательного зрелища с интересной и забавной историей любви, красной нитью проходящей через весь сюжет, качественными спецэффектами и аурой потустороннего мира.

Продолжительность: ~00:44:00 серия
Качество видео: WEB-DLRip [Сэмпл
Перевод: Многоголосый закадровый, профессиональный - LostFilm
Реклама: присутствуют заставка и логотип LostFilm.
Видео: AVC/H.264, 1920х1080 (16:9), ~5242 Kbps
Аудио #1 Rus: AC3, 2 ch, 384 kbps - многоголосый закадровый
Аудио #2 Eng: AC3, 2 ch, 384 kbps - оригинальный

Mediainfo:

Код:
Complete name               : G:\Lucifer.rus.LostFilm\Lucifer.S01E01.1080p.rus.LostFilm.TV.mkv
Format                      : Matroska
Format version              : Version 4 / Version 2
File size                   : 1.89 GiB
Duration                    : 45mn 4s
Overall bit rate            : 6 009 Kbps
Encoded date                : UTC 2016-05-27 15:12:17
Writing application         : mkvmerge v7.7.0 ('Six Voices') 64bit built on Feb 28 2015 23:39:33
Writing library             : libebml v1.3.1 + libmatroska v1.4.2
Video
ID                          : 1
Format                      : AVC
Format/Info                 : Advanced Video Codec
Format profile              : [url=mailto:High@L4.1]High@L4.1[/url]
Format settings, CABAC      : Yes
Format settings, ReFrames   : 4 frames
Codec ID                    : V_MPEG4/ISO/AVC
Duration                    : 45mn 4s
Bit rate                    : 5 242 Kbps
Width                       : 1 920 pixels
Height                      : 1 080 pixels
Display aspect ratio        : 16:9
Frame rate mode             : Constant
Frame rate                  : 23.976 (24000/1001) fps
Original frame rate         : 23.976 (23976/1000) fps
Color space                 : YUV
Chroma subsampling          : 4:2:0
Bit depth                   : 8 bits
Scan type                   : Progressive
Bits/(Pixel*Frame)          : 0.105
Stream size                 : 1.65 GiB (87%)
Writing library             : x264 core 112 r1834 a51816a
Encoding settings           : cabac=1 / ref=4 / deblock=1:-3:-2 / analyse=0x3:0x113 / me=hex / subme=7 / psy=1 / psy_rd=1.00:0.00 / mixed_ref=1 / me_range=16 / chroma_me=1 / trellis=1 / 8x8dct=1 / cqm=0 / deadzone=21,11 / fast_pskip=1 / chroma_qp_offset=-2 / threads=12 / sliced_threads=0 / nr=0 / decimate=1 / interlaced=0 / constrained_intra=0 / bframes=5 / b_pyramid=2 / b_adapt=1 / b_bias=0 / direct=1 / weightb=1 / open_gop=0 / weightp=2 / keyint=250 / keyint_min=25 / scenecut=40 / intra_refresh=0 / rc_lookahead=40 / rc=2pass / mbtree=1 / bitrate=5242 / ratetol=1.0 / qcomp=0.60 / qpmin=0 / qpmax=51 / qpstep=4 / cplxblur=20.0 / qblur=0.5 / vbv_maxrate=10000 / vbv_bufsize=256000 / ip_ratio=1.40 / aq=1:1.00 / nal_hrd=none
Default                     : Yes
Forced                      : No
Audio #1
ID                          : 2
Format                      : AC-3
Format/Info                 : Audio Coding 3
Mode extension              : CM (complete main)
Format settings, Endianness : Big
Codec ID                    : A_AC3
Duration                    : 45mn 4s
Bit rate mode               : Constant
Bit rate                    : 384 Kbps
Channel(s)                  : 2 channels
Channel positions           : Front: L R
Sampling rate               : 48.0 KHz
Frame rate                  : 31.250 fps (1536 spf)
Compression mode            : Lossy
Stream size                 : 124 MiB (6%)
Default                     : Yes
Forced                      : No
Audio #2
ID                          : 3
Format                      : AC-3
Format/Info                 : Audio Coding 3
Mode extension              : CM (complete main)
Format settings, Endianness : Big
Codec ID                    : A_AC3
Duration                    : 45mn 4s
Bit rate mode               : Constant
Bit rate                    : 384 Kbps
Channel(s)                  : 2 channels
Channel positions           : Front: L R
Sampling rate               : 48.0 KHz
Frame rate                  : 31.250 fps (1536 spf)
Compression mode            : Lossy
Stream size                 : 124 MiB (6%)
Default                     : No
Forced                      : No

Список серий

01. Pilot / Пилот
02. Lucifer, Stay. Good Devil. / Люцифер, стоять, хороший дьявол
03. The Would-Be Prince of Darkness / Горе-князь тьмы
04. Manly Whatnots / Мужские штучки
05. Sweet Kicks / Сладкий пинок
06. Favorite Son / Любимый сын
07. Wingman / Второй пилот
08. Et Tu, Doctor? / И ты, доктор?
09. A Priest Walks Into a Bar / Священник заходит в бар
10. Pops / Папаша
11. St. Lucifer / Святой Люцифер
12. #TeamLucifer / Команда Люцифера
13. Take Me Back to Hell / Забери меня обратно

Скриншоты

       
Вне форума [Профиль] [ЛС]
Показать сообщения:    
Ответить на тему

Текущее время: Сегодня 03:14

Часовой пояс: GMT + 3



Вы не можете начинать темы
Вы не можете отвечать на сообщения
Вы не можете редактировать свои сообщения
Вы не можете удалять свои сообщения
Вы не можете голосовать в опросах
Вы не можете прикреплять файлы к сообщениям
Вы не можете скачивать файлы