Today is a free download without charge Download

Дом / Huset (Райнарт Киил) [2016, триллер, WEBRip] [VO]

Reply to topic
DL-List and Torrent activity
Size:  1.36 GB   |    Registered:  3 years 3 months   |    Completed:  11 times
Seeders:  61  [  0 KB/s  ]   Leechers:  20  [  0 KB/s  ]   Show peers in full details
 
 
 
 
Author
Message

Russian Mafia ®

Gender:

Longevity: 4 years 7 months

Posts: 337

Торрент-статистика

Post 09-Aug-2016 16:26

[Quote]

Производство: Норвегия
Жанр: Триллер
Режиссер: Райнарт Киил
Продюсер: Райнарт Киил, Свейн Андерсен
Актеры: Матс Рейнхарт, Сондре Крогтофт Ларсен, Иви Кассет Ростен, Сигмунд Северуд
Описание:
Вторая мировая война. Двое немецких солдат захватывают в плен норвежского солдата. Надвигается холодная ночь, но им повезло найти дом в лесу. А может быть, и не повезло.

Продолжительность: 01:24:36
Качество видео: WEBRip Сэмпл
Перевод: Одноголосый закадровый, любительский
Озвучка / Автор перевода: Павел Морозов / Михаил Васильев
Вид субтитров: Отсутствуют
Видео: Xvid, 720x304, ~2099 Kbps
Аудио: AC3, 2 ch, 192 Kbps, CBR

Mediainfo:

Код:
Общее
Полное имя                               : J:\Huset.RU.avi
Формат                                   : AVI
Формат/Информация                        : Audio Video Interleave
Профиль формата                          : OpenDML
Настройки формата                        : rec
Размер файла                             : 1,36 Гбайт
Продолжительность                        : 1 ч. 24 м.
Общий поток                              : 2296 Кбит/сек
Программа кодирования                    : AVI-Mux GUI 1.17.8.3, Feb 16 201019:42:50
Видео
Идентификатор                            : 0
Формат                                   : MPEG-4 Visual
Профиль формата                          : Advanced Simple@L5
Параметр BVOP формата                    : 2
Параметр QPel формата                    : Нет
Параметр GMC формата                     : 3 точки перехода
Параметр матрицы формата                 : Default (H.263)
Режим смешивания                         : Сжатый битовый поток
Идентификатор кодека                     : XVID
Идентификатор кодека/Подсказка           : XviD
Продолжительность                        : 1 ч. 24 м.
Битрейт                                  : 2099 Кбит/сек
Ширина                                   : 720 пикселей
Высота                                   : 304 пикселя
Соотношение сторон                       : 2,35:1
Частота кадров                           : 25,000 кадров/сек
Цветовое пространство                    : YUV
Субдискретизация насыщенности            : 4:2:0
Битовая глубина                          : 8 бит
Тип развёртки                            : Прогрессивная
Метод сжатия                             : С потерями
Бит/(Пиксели*Кадры)                      : 0.384
Размер потока                            : 1,24 Гбайт (91%)
Библиотека кодирования                   : XviD 62
Аудио
Идентификатор                            : 1
Формат                                   : AC-3
Формат/Информация                        : Audio Coding 3
Расширение режима                        : CM (complete main)
Параметр Endianness формата              : Big
Идентификатор кодека                     : 2000
Продолжительность                        : 1 ч. 24 м.
Вид битрейта                             : Постоянный
Битрейт                                  : 192 Кбит/сек
Каналы                                   : 2 канала
Расположение каналов                     : Front: L R
Частота                                  : 48,0 КГц
Частота кадров                           : 31,250 кадров/сек (1536 spf)
Метод сжатия                             : С потерями
Размер потока                            : 116 Мбайт (8%)
Выравнивание                             : Соединение по промежуткам
Продолжительность промежутка             : 64  мс. (1,60 видеокадра)
Время предзагрузки промежутка            : 192  мс.

Скриншоты

       
[darkos.club].t300551.torrent 
Torrent: Registered   [ 2016-08-09 16:26 ]

Download

14 KB

Воспроизвести онлайн

Status: T temporary
Completed: 11 times
Size: 1.36 GB, InfoHash (Google it!)
Score:  5 (vote: 3)
Default: 4  Thank you   (list)
 
Other forum [Profile] [PM]
Display posts from previous:    
Reply to topic

The time now is: Today 00:50

All times are GMT + 3 Hours



You cannot post new topics in this forum
You cannot reply to topics in this forum
You cannot edit your posts in this forum
You cannot delete your posts in this forum
You cannot vote in polls in this forum
You cannot attach files in this forum
You can download files in this forum