Сегодня идет свободное скачивание без начисления Download

Рим / Rome (2005-2007) [1-2 сезон: 22 серии из 22] [BDRemux 1080р]

Ответить на тему
 
Автор
Сообщение

Russian Mafia ®

Пол:

Стаж: 3 года 6 месяцев

Сообщений: 343

Торрент-статистика

Пост 09-Авг-2016 07:09

[Цитировать]

Год выпуска: 2005-2007
Производство: США, HD Vision Studios, British Broadcasting Corporation (BBC), Home Box Office (HBO)
Жанр: Боевик, Драма, Военный, История
Описание фильма:
Сериал начинается в 52 году до н. э., когда Гай Юлий Цезарь завоевывает Галлию после восьмилетней войны и готовится возвращаться в Рим. Племянница Цезаря Атия с тревогой ждет его возвращения, патриции в отчаянии — они боятся, что возвращение Цезаря нарушит сложившийся статус-кво, что благополучие, которое они построили за счет плебса, будет подорвано.
В сенате лидеры партии патрициев убеждают старого друга Цезаря, Помпея Великого, что Цезарь стал угрозой для процветания Рима. В это время два незадачливых легионера, Люций Варен и Тит Пуло, затевают авантюру, которая, в случае успеха, значительно повысит их благосостояние. Чем ближе легионы Цезаря продвигаются к Риму, тем больше растет напряжение между солдатами и мирными жителями, тем ближе к развязке конфликт, который навсегда изменит историю…
Режиссер: Майкл Эптид, Аллен Коултер, Алан Пол, Стив Шилл, Тимоти Ван Паттен, Алан Тейлор, Джон Мэйбери
Актеры: Кевин МакКидд, Рэй Стивенсон, Полли Уокер, Керри Кондон, Киаран Хайндс, Джеймс Пьюрфой, Йен МакНайс, Линдси Дункан, Лидия Бионди, Тобиаш Мензес, Дэвид Бамбер, Макс Пиркис, Ли Бордман
Перевод: Двухголосый (НТВ+), Многоголосый (LostFilm)
Вид субтитров: Вшитые отключаемые
Язык субтитров: Русский (Киномания, субтитры.ру), Английский

Продолжительность: 22 x ~ 00:55:00
Качество видео: BDRemux 1080p
Формат: MKV
Видео: MPEG-4 AVC ~28857 kbps, 23.976 fps, 16:9, High Profile 4.1
Аудио 1: Русский - AC3, 6 ch, 384 Кбит/с - LostFilm
Аудио 2: Русский - АС3, 2 ch, 192 Кбит/с - НТВ+
Аудио 3: Английский DTS-HD MA, ~4381 kbps 5.1 / 48 kHz / 4381 kbps / 24-bit (DTS Core: 5.1 / 48 kHz / 1509 kbps / 24-bit)

Содержание:

1-й Сезон
01. Украденный орёл / The Stolen Eagle
02. Как Тит Пуллон разрушил республику / How Titus Pullo Brought Down the Republic
03. Сова в терновнике / An Owl in a Thornbush
04. Кража у Сатурна / Stealing from Saturn
05. Таран коснулся стены / The Ram has Touched the Wall
06. Эгерия / Egeria
07. Фарсал / Pharsalus
08. Цезарион Caesarion
09. Утика / Utica
10. Триумф / Triumph
11. Останки / The Spoils
12. Мартовские иды / Kalends of February
2-й Сезон
01. Пасха / Passover
02. Сын Аида / Son of Hades
03. Это были слова Марка Туллия Цицерона / These Being the Words of Marcus Tullius Ciceron
04. Черепаха и заяц / Testudo et Lepus (The Tortoise and the Hare)
05. Герои республики / Heroes of the Republic
06. Филиппы / Philippi
07. Посмертная маска / Death Mask
08. Необходимый вымысел / A Necessary Fiction
09. Не оставить голодного / Deus Impeditio Esuritori Nullus (No God Can Stop a Hungry Man)
10. Что касается твоего отца… / De Patre Vostro (About Your Father)

MediaInfo:

Общее
Уникальный идентификатор : 202213986306957810062376374897416750295 (0x9820FF449552E96F9DFB31DB3C5E44D7)
Полное имя : \Рим (Rome)\S01\Rome S01E01.mkv
Формат : Matroska
Версия формата : Version 2
Размер файла : 12,1 Гбайт
Продолжительность : 52 м.
Режим общего битрейта : Переменный
Общий поток : 33,2 Мбит/сек
Название фильма : Release for
Дата кодирования : UTC 2013-05-18 12:07:41
Программа кодирования : mkvmerge v4.9.1 ('Ich will') сборка от Jul 11 2011 23:53:15
Библиотека кодирования : libebml v1.2.1 + libmatroska v1.1.1
Видео
Идентификатор : 1
Формат : AVC
Формат/Информация : Advanced Video Codec
Профиль формата : [url=mailto:High@L4.1]High@L4.1[/url]
Параметр CABAC формата : Да
Параметр ReFrames формата : 4 кадра
Идентификатор кодека : V_MPEG4/ISO/AVC
Продолжительность : 52 м.
Вид битрейта : Переменный
Максимальный битрейт : 32,7 Мбит/сек
Ширина : 1920 пикселей
Высота : 1080 пикселей
Соотношение сторон : 16:9
Режим частоты кадров : Постоянный
Частота кадров : 23,976 кадра/сек
Цветовое пространство : YUV
Субдискретизация насыщенности : 4:2:0
Битовая глубина : 8 бит
Тип развёртки : Прогрессивная
Язык : English
Default : Да
Forced : Нет
Основные цвета : BT.709
Характеристики трансфера : BT.709
Коэффициенты матрицы : BT.709
Аудио #1
Идентификатор : 2
Формат : AC-3
Формат/Информация : Audio Coding 3
Расширение режима : ME (music and effects)
Параметр Endianness формата : Big
Идентификатор кодека : A_AC3
Продолжительность : 52 м.
Вид битрейта : Постоянный
Битрейт : 384 Кбит/сек
Каналы : 6 каналов
Расположение каналов : Front: L C R, Side: L R, LFE
Частота : 48,0 КГц
Битовая глубина : 16 бит
Метод сжатия : С потерями
Задержка видео : 15 мс.
Размер потока : 144 Мбайт (1%)
Заголовок : AC3 5.1, 384 kbps (многоголосый, LostFilm)
Язык : Russian
Default : Да
Forced : Нет
Аудио #2
Идентификатор : 3
Формат : AC-3
Формат/Информация : Audio Coding 3
Расширение режима : ME (music and effects)
Параметр Endianness формата : Big
Идентификатор кодека : A_AC3
Продолжительность : 52 м.
Вид битрейта : Постоянный
Битрейт : 192 Кбит/сек
Каналы : 2 канала
Расположение каналов : Front: L R
Частота : 48,0 КГц
Битовая глубина : 16 бит
Метод сжатия : С потерями
Размер потока : 71,8 Мбайт (1%)
Заголовок : AC3 2.0, 192 kbps (многоголосый, НТВ+)
Язык : Russian
Default : Нет
Forced : Нет
Аудио #3
Идентификатор : 4
Формат : DTS
Формат/Информация : Digital Theater Systems
Профиль формата : MA / Core
Режим : 16
Параметр Endianness формата : Big
Идентификатор кодека : A_DTS
Продолжительность : 52 м.
Вид битрейта : Переменный
Битрейт : Неизвестно / 1509 Кбит/сек
Каналы : 6 каналов
Расположение каналов : Front: L C R, Side: L R, LFE
Частота : 48,0 КГц
Битовая глубина : 24 бит
Метод сжатия : Без потерь / Lossy
Язык : English
Default : Нет
Forced : Нет
Текст #1
Идентификатор : 5
Формат : UTF-8
Идентификатор кодека : S_TEXT/UTF8
Идентификатор кодека/Информация : UTF-8 Plain Text
Заголовок : Киномания
Язык : Russian
Default : Нет
Forced : Нет
Текст #2
Идентификатор : 6
Формат : UTF-8
Идентификатор кодека : S_TEXT/UTF8
Идентификатор кодека/Информация : UTF-8 Plain Text
Заголовок : izmail
Язык : Russian
Default : Нет
Forced : Нет
Текст #3
Идентификатор : 7
Формат : UTF-8
Идентификатор кодека : S_TEXT/UTF8
Идентификатор кодека/Информация : UTF-8 Plain Text
Заголовок : English
Язык : English
Default : Нет
Forced : Нет

Скриншоты

         
         

Дополнительно:

Релиз - Тарантиныч
Видеоряд - CtrlHD
Звук - Jackal
Субтитры - ТыНьО
Вне форума [Профиль] [ЛС]
Показать сообщения:    
Ответить на тему

Текущее время: Сегодня 02:06

Часовой пояс: GMT + 3



Вы не можете начинать темы
Вы не можете отвечать на сообщения
Вы не можете редактировать свои сообщения
Вы не можете удалять свои сообщения
Вы не можете голосовать в опросах
Вы не можете прикреплять файлы к сообщениям
Вы не можете скачивать файлы