Сегодня идет свободное скачивание без начисления Download

Ад на колесах / Hell on Wheels (2015) (сезон 5, серии 1-14 из 14) [WEB-DLRip 1080p] LostFilm

Ответить на тему
 
Автор
Сообщение

Russian Mafia ®

Пол:

Стаж: 3 года 2 месяца

Сообщений: 343

Торрент-статистика

Пост 09-Авг-2016 06:08

[Цитировать]

Производство: Канада, Великобритания
Жанр: драма, вестерн
Режиссер: Дэвид Фон Энкен, Адам Дэвидсон, Нил ЛаБут
Актеры: Энсон Маунт, Колм Мини, Фил Бурк, Робин МакЛиви, Дон Норвуд, Кристофер Хейердал, Дженнифер Феррин, Чела Хорсдэл, МакКензи Портер и др.
Описание:
Бывший солдат Конфедерации Каллен Бохэннон, одержимый жаждой мести за смерть своих близких, приезжает в передвижной палаточный городок Ад на колесах, где ведется активное строительство трансконтинентальной железной дороги. Главный герой, представляющий из себя вечный комок нервов и к тому же постоянно находящийся под градусом, попадает в весьма злачное место. Делами здесь заправляет алчный Томас Дюран, который использует стройку как средство личного обогащения. Чернорабочие то и дело пытаются бунтовать против нечеловеческих условий труда, священник-психопат отчаянно призывает опустившийся люд обратиться к свету, а у каждого из местных жителей есть шанс в любой момент погибнуть от стрел дикарей-индейцев. Последние никак не могут смириться с текущим положением дел в их вотчине. Каллену предстоит перевернуть с ног на голову этот и без того безумный мир, дабы доказать себе и всем окружающим, что даже в аду можно жить по совести.

Продолжительность: ~00:43:00 серия
Качество видео: WEB-DLRip
Перевод: Многоголосый закадровый, профессиональный - LostFilm
Реклама: присутствуют заставка и логотип LostFilm.
Видео: AVC/H.264, 1920х1080 (16:9), ~5242 Kbps
Аудио Rus: AC-3, 48.0 KHz, 2 ch, 384 Kbps - многоголосый закадровый
Аудио Eng: AC-3, 48.0 KHz, 2 ch, 384 Kbps - оригинал

Mediainfo:

Код:
Hell.On.Wheels.S05E01.1080p.rus.LostFilm.mkv
Format                      : Matroska
Format version              : Version 4 / Version 2
File size                   : 1.81 GiB
Duration                    : 43mn 10s
Overall bit rate            : 6 010 Kbps
Encoded date                : UTC 2015-07-27 17:15:30
Writing application         : mkvmerge v7.7.0 ('Six Voices') 64bit built on Feb 28 2015 23:39:33
Writing library             : libebml v1.3.1 + libmatroska v1.4.2
Video
ID                          : 1
Format                      : AVC
Format/Info                 : Advanced Video Codec
Format profile              : High@L4
Format settings, CABAC      : Yes
Format settings, ReFrames   : 2 frames
Codec ID                    : V_MPEG4/ISO/AVC
Duration                    : 43mn 10s
Bit rate                    : 5 242 Kbps
Width                       : 1 920 pixels
Height                      : 1 080 pixels
Display aspect ratio        : 16:9
Frame rate mode             : Constant
Frame rate                  : 23.976 (24000/1001) fps
Original frame rate         : 23.976 (23976/1000) fps
Color space                 : YUV
Chroma subsampling          : 4:2:0
Bit depth                   : 8 bits
Scan type                   : Progressive
Bits/(Pixel*Frame)          : 0.105
Stream size                 : 1.58 GiB (87%)
Writing library             : x264 core 112 r1834 a51816a
Encoding settings           : cabac=1 / ref=1 / deblock=1:0:0 / analyse=0x3:0x133 / me=umh / subme=7 / psy=1 / psy_rd=1.00:0.00 / mixed_ref=0 / me_range=16 / chroma_me=1 / trellis=1 / 8x8dct=1 / cqm=0 / deadzone=21,11 / fast_pskip=1 / chroma_qp_offset=-2 / threads=12 / sliced_threads=0 / nr=0 / decimate=1 / interlaced=0 / constrained_intra=0 / bframes=5 / b_pyramid=0 / b_adapt=1 / b_bias=0 / direct=3 / weightb=1 / open_gop=0 / weightp=2 / keyint=250 / keyint_min=25 / scenecut=40 / intra_refresh=0 / rc_lookahead=40 / rc=2pass / mbtree=1 / bitrate=5242 / ratetol=1.0 / qcomp=0.60 / qpmin=0 / qpmax=51 / qpstep=4 / cplxblur=20.0 / qblur=0.5 / ip_ratio=1.40 / aq=1:1.00
Default                     : Yes
Forced                      : No
Audio #1
ID                          : 2
Format                      : AC-3
Format/Info                 : Audio Coding 3
Mode extension              : CM (complete main)
Format settings, Endianness : Big
Codec ID                    : A_AC3
Duration                    : 43mn 10s
Bit rate mode               : Constant
Bit rate                    : 384 Kbps
Channel(s)                  : 2 channels
Channel positions           : Front: L R
Sampling rate               : 48.0 KHz
Frame rate                  : 31.250 fps (1536 spf)
Compression mode            : Lossy
Stream size                 : 119 MiB (6%)
Default                     : Yes
Forced                      : No
Audio #2
ID                          : 3
Format                      : AC-3
Format/Info                 : Audio Coding 3
Mode extension              : CM (complete main)
Format settings, Endianness : Big
Codec ID                    : A_AC3
Duration                    : 43mn 10s
Bit rate mode               : Constant
Bit rate                    : 384 Kbps
Channel(s)                  : 2 channels
Channel positions           : Front: L R
Sampling rate               : 48.0 KHz
Frame rate                  : 31.250 fps (1536 spf)
Compression mode            : Lossy
Stream size                 : 119 MiB (6%)
Default                     : No
Forced                      : No

Список серий

01. Chinatown / Чайнатаун
02. Mei Mei / Сестрёнка
03. White Justice / Белое правосудие
04. Struck / Шантаж
05. Elixir of Life / Эликсир жизни
06. Hungry Ghosts / Голодные духи
07. False Prophets / Лжепророки
08. Two Soldiers / Два солдата
09. Return to the Garden / Возвращение в сад
10. 61 Degrees / 61 градус
11. Gambit / Гамбит
12. Any Sum Within Reason / За любую сумму в разумных пределах
13. Railroad Men / Железнодорожники
14. Done / Готово

Скриншоты

       
Вне форума [Профиль] [ЛС]
Показать сообщения:    
Ответить на тему

Текущее время: Сегодня 22:47

Часовой пояс: GMT + 3



Вы не можете начинать темы
Вы не можете отвечать на сообщения
Вы не можете редактировать свои сообщения
Вы не можете удалять свои сообщения
Вы не можете голосовать в опросах
Вы не можете прикреплять файлы к сообщениям
Вы не можете скачивать файлы