Сегодня идет свободное скачивание без начисления Download

Рэй Донован / Ray Donovan (2014) (сезон 2, серии 1-12 из 12) [HDTV 720p] NewStudio

Ответить на тему
 
Автор
Сообщение

Russian Mafia ®

Пол:

Стаж: 3 года 3 месяца

Сообщений: 343

Торрент-статистика

Пост 09-Авг-2016 05:59

[Цитировать]

Производство: США, Showtime
Жанр: драма, криминал
Режиссер: Аллен Култер
Актеры: Лив Шрайбер, Девон Бэгби, Уильям Стэнфорд Дэвис, Кэтрин Менниг, Фрэнк Уэйли, Октавиус Дж. Джонсон и др.
Описание:
Рэй Донован решает любые проблемы богатых и знаменитых людей Лос-Анджелеса, но при этом не может разобраться со своей собственной семьей…

Продолжительность: ~ 00:50:00 серия
Качество видео: HDTV
Перевод: Многоголосый закадровый, профессиональный - NewStudio
Видео: AVC/H.264, 1280x720 (16:9), ~2206 kb/s
Аудио 1 Rus: AC3, 6 ch, 384 kb/s - многоголосый закадровый
Аудио 2 Eng: AC3, 6 ch, 384 kb/s - оригинал

Mediainfo:

Код:
Общее
Уникальный идентификатор                 : 188024491698380708475734995005342706463 (0x8D74332B993638A7B14E5067C22F6B1F)
Полное имя                               : D:\торрент\nnm\Рэй Донован\Ray.Donovan.s02e12.HDTV.720p.NewStudio.TV.mkv
Формат                                   : Matroska
Версия формата                           : Version 2
Размер файла                             : 1,25 Гбайт
Продолжительность                        : 52 м.
Общий поток                              : 3434 Кбит/сек
Дата кодирования                         : UTC 2014-09-29 20:38:35
Программа кодирования                    : mkvmerge v2.9.9 ('Tutu') built on Nov 25 2009 21:13:32
Библиотека кодирования                   : libebml v0.7.9 + libmatroska v0.8.1
Видео
Идентификатор                            : 1
Формат                                   : AVC
Формат/Информация                        : Advanced Video Codec
Профиль формата                          : [url=mailto:High@L4.1]High@L4.1[/url]
Параметр CABAC формата                   : Да
Параметр ReFrames формата                : 5 кадров
Идентификатор кодека                     : V_MPEG4/ISO/AVC
Продолжительность                        : 52 м.
Битрейт                                  : 2597 Кбит/сек
Ширина                                   : 1280 пикселей
Высота                                   : 720 пикселей
Соотношение сторон                       : 16:9
Режим частоты кадров                     : Постоянный
Частота кадров                           : 23,976 кадра/сек
Цветовое пространство                    : YUV
Субдискретизация насыщенности            : 4:2:0
Битовая глубина                          : 8 бит
Тип развёртки                            : Прогрессивная
Бит/(Пиксели*Кадры)                      : 0.118
Размер потока                            : 968 Мбайт (76%)
Библиотека кодирования                   : x264 core 142 r2479 dd79a61
Настройки программы                      : cabac=1 / ref=5 / deblock=1:-2:-2 / analyse=0x3:0x113 / me=umh / subme=8 / psy=1 / psy_rd=1.05:0.00 / mixed_ref=1 / me_range=16 / chroma_me=1 / trellis=1 / 8x8dct=1 / cqm=0 / deadzone=21,11 / fast_pskip=1 / chroma_qp_offset=-2 / threads=12 / lookahead_threads=2 / sliced_threads=0 / nr=0 / decimate=1 / interlaced=0 / bluray_compat=0 / constrained_intra=0 / bframes=3 / b_pyramid=2 / b_adapt=2 / b_bias=0 / direct=3 / weightb=1 / open_gop=0 / weightp=2 / keyint=250 / keyint_min=23 / scenecut=40 / intra_refresh=0 / rc_lookahead=50 / rc=crf / mbtree=1 / crf=18.0 / qcomp=0.60 / qpmin=0 / qpmax=69 / qpstep=4 / ip_ratio=1.40 / aq=1:1.10
Язык                                     : English
Default                                  : Нет
Forced                                   : Нет
Аудио #1
Идентификатор                            : 2
Формат                                   : AC-3
Формат/Информация                        : Audio Coding 3
Расширение режима                        : CM (complete main)
Параметр Endianness формата              : Big
Идентификатор кодека                     : A_AC3
Продолжительность                        : 52 м.
Вид битрейта                             : Постоянный
Битрейт                                  : 384 Кбит/сек
Каналы                                   : 6 каналов
Расположение каналов                     : Front: L C R, Side: L R, LFE
Частота                                  : 48,0 КГц
Метод сжатия                             : С потерями
Размер потока                            : 143 Мбайт (11%)
Язык                                     : Russian
Default                                  : Да
Forced                                   : Да
Аудио #2
Идентификатор                            : 3
Формат                                   : AC-3
Формат/Информация                        : Audio Coding 3
Расширение режима                        : CM (complete main)
Параметр Endianness формата              : Big
Идентификатор кодека                     : A_AC3
Продолжительность                        : 52 м.
Вид битрейта                             : Постоянный
Битрейт                                  : 384 Кбит/сек
Каналы                                   : 6 каналов
Channel(s)_Original                      : 2 канала
Расположение каналов                     : Front: L R
Частота                                  : 48,0 КГц
Метод сжатия                             : С потерями
Размер потока                            : 143 Мбайт (11%)
Язык                                     : English
Default                                  : Нет
Forced                                   : Нет

Скриншоты

       
Вне форума [Профиль] [ЛС]
Показать сообщения:    
Ответить на тему

Текущее время: Сегодня 23:31

Часовой пояс: GMT + 3



Вы не можете начинать темы
Вы не можете отвечать на сообщения
Вы не можете редактировать свои сообщения
Вы не можете удалять свои сообщения
Вы не можете голосовать в опросах
Вы не можете прикреплять файлы к сообщениям
Вы не можете скачивать файлы