Сегодня идет свободное скачивание без начисления Download

Проповедник / Пастырь / Preacher (2016)(сезон 1, серии 1-10 из 10) [WEB-DLRip] LostFilm

Ответить на тему
 
Автор
Сообщение

Russian Mafia ®

Пол:

Стаж: 3 года 7 месяцев

Сообщений: 343

Торрент-статистика

Пост 08-Авг-2016 17:47

[Цитировать]

Производство: США / AMC Studios
Жанр: фэнтези, драма, детектив, приключения
Режиссер: Эван Голдберг, Сет Роген, Майкл Словис
Актеры: Доминик Купер, Том Брук, У. Эрл Браун, Йен Коллетти, Джозеф Гилган, Люси Гриффитс, Джеки Эрл Хейли, Рут Негга, Дерек Уилсон, Анатол Юсеф и др.
Описание:
Священник Джесси Кастер по воле случая стал носителем внутри своего естества странного существа по имени Генезис. Это дитя совокупления ангела и демона представляет собой одновременно чистый идеал и квинтэссенцию света, но также сгусток абсолютного зла. Генезис — единственное существо во Вселенной, которое может встать вровень с Богом, если того пожелает, а его носитель автоматически становится самым могущественным существом в материальном мире. И это проповедник Кастер.

Продолжительность: ~00:49:00 серия (1 серия 01:04:48)
Качество видео: WEB-DLRip
Перевод: Многоголосый закадровый, профессиональный - LostFilm
Видео: XviD, 720x400 (16:9), ~1479 kb/s
Аудио Rus: MPEG Layer 3, 48,0 kHz, 2 ch, 128 kb/s — многоголосый закадровый
Аудио Eng: MPEG Layer 3, 48,0 kHz, 2 ch, 128 kb/s — оригинал

MediaInfo

Код:
Общее
Полное имя                               : D:\Проповедник (сезон 1) Preacher (2016) WEB-DLRip - LostFilm\Preacher.S01E01.WEB-DLRip.Rus.Eng.DV.LostFilm.avi
Формат                                   : AVI
Формат/Информация                        : Audio Video Interleave
Размер файла                             : 811 Мбайт
Продолжительность                        : 1 ч. 4 м.
Общий поток                              : 1749 Кбит/сек
Название фильма                          : Preacher.S01E01.WEB-DLRip.Rus.Eng.DV.LostFilm / NNM-Club
Программа кодирования                    : VirtualDubModRus 1.5.10.2 (build 2542/release)
Библиотека кодирования                   : VirtualDubMod build 2542/release
Видео
Идентификатор                            : 0
Формат                                   : MPEG-4 Visual
Профиль формата                          : Advanced Simple@L5
Параметр BVOP формата                    : 2
Параметр QPel формата                    : Нет
Параметр GMC формата                     : Без точки перехода
Параметр матрицы формата                 : Default (H.263)
Идентификатор кодека                     : XVID
Идентификатор кодека/Подсказка           : XviD
Продолжительность                        : 1 ч. 4 м.
Битрейт                                  : 1479 Кбит/сек
Ширина                                   : 720 пикселей
Высота                                   : 400 пикселей
Соотношение сторон                       : 16:9
Частота кадров                           : 23,976 (24000/1001) кадра/сек
Цветовое пространство                    : YUV
Субдискретизация насыщенности            : 4:2:0
Битовая глубина                          : 8 бит
Тип развёртки                            : Прогрессивная
Метод сжатия                             : С потерями
Бит/(Пиксели*Кадры)                      : 0.214
Размер потока                            : 685 Мбайт (85%)
Заголовок                                : Rip by DriverV / NNM-Club
Библиотека кодирования                   : XviD 64
Аудио #1
Идентификатор                            : 1
Формат                                   : MPEG Audio
Версия формата                           : Version 1
Профиль формата                          : Layer 3
Режим                                    : Joint stereo
Расширение режима                        : MS Stereo
Идентификатор кодека                     : 55
Идентификатор кодека/Подсказка           : MP3
Продолжительность                        : 1 ч. 4 м.
Вид битрейта                             : Постоянный
Битрейт                                  : 128 Кбит/сек
Каналы                                   : 2 канала
Частота                                  : 48,0 КГц
Метод сжатия                             : С потерями
Задержка видео                           : 1 с. 80 мс.
Размер потока                            : 59,3 Мбайт (7%)
Выравнивание                             : Разделение по промежуткам
Продолжительность промежутка             : 42  мс. (1,00 видеокадр)
Время предзагрузки промежутка            : 504  мс.
Аудио #2
Идентификатор                            : 2
Формат                                   : MPEG Audio
Версия формата                           : Version 1
Профиль формата                          : Layer 3
Режим                                    : Joint stereo
Расширение режима                        : MS Stereo
Идентификатор кодека                     : 55
Идентификатор кодека/Подсказка           : MP3
Продолжительность                        : 1 ч. 4 м.
Вид битрейта                             : Постоянный
Битрейт                                  : 128 Кбит/сек
Каналы                                   : 2 канала
Частота                                  : 48,0 КГц
Метод сжатия                             : С потерями
Размер потока                            : 59,3 Мбайт (7%)
Выравнивание                             : Соединение по промежуткам
Продолжительность промежутка             : 42  мс. (1,00 видеокадр)
Время предзагрузки промежутка            : 504  мс.

Список серий

01. Pilot / Пилот
02. See / Узри
03. The Possibilities / Вероятности
04. Monster Swamp / Паучья банка
05. South Will Rise Again / Юг снова встанет с колен
06. Sundowner / Закатный
07. He Gone / Исчез
08. El Valero / Эль Валеро
09. Finish the Song / Допой свою песню
10. Call and Response / Звонок и ответ

Дополнительная информация

"Чистый" кадр. Вступительная заставка и логотип LostFilm отсутствуют.

Скриншоты

     
Вне форума [Профиль] [ЛС]
Показать сообщения:    
Ответить на тему

Текущее время: Сегодня 04:46

Часовой пояс: GMT + 3



Вы не можете начинать темы
Вы не можете отвечать на сообщения
Вы не можете редактировать свои сообщения
Вы не можете удалять свои сообщения
Вы не можете голосовать в опросах
Вы не можете прикреплять файлы к сообщениям
Вы не можете скачивать файлы