Today is a free download without charge Download

Пришельцы 3: Взятие Бастилии / Les Visiteurs: La Revolution (Жан-Мари Пуаре) [2016, комедия, HDRip]

Reply to topic
DL-List and Torrent activity
Size:  1.37 GB   |    Registered:  3 years 4 months   |    Completed:  15 times

Seeder not seen: 29 days

 
 
 
 
 
Author
Message

Russian Mafia ®

Gender:

Longevity: 4 years 7 months

Posts: 337

Торрент-статистика

Post 08-Aug-2016 17:31

[Quote]

Пришельцы 3: Взятие Бастилии / Les Visiteurs: La Revolution (2016) HDRip - Производство: Франция, Gaumont, Ouille Productions, Nexus Factory
Жанр: Комедия
Режиссер: Жан-Мари Пуаре
Продюсер: Кристиан Клавье, Сидони Дюма, Жан-Мари Пуаре
Актеры: Кристиан Клавье, Жан Рено, Франк Дюбоск, Карин Вьяр, Сильви Тестю, Мари-Анн Шазель, Эри Абиттан, Алекс Лутс, Стефани де Крэенкур, Вероника Буланжер
Описание:
В третьей части граф с оруженосцем отправляются в самое сложное для Франции время — период Французской революции.

Продолжительность: 01:48:52
Качество видео: HDRip
Перевод: Многоголосый закадровый, любительский (СПД)
Субтитры: Отсутствуют
Реклама: Присутствуют голосовые и текстовые вставки
Видео: Xvid, 720x304, ~1596 Kbps
Аудио: AC3, 2 ch, 192 Kbps, CBR

Mediainfo:

Код:
General
Complete name                  : D:\Downloads\Les.Visiteurs.La.Revolution.2O16.HDRip.14OOMB.avi
Format                         : AVI
Format/Info                    : Audio Video Interleave
File size                      : 1.37 GiB
Duration                       : 1 h 48 min
Overall bit rate               : 1 797 kb/s
Writing application            : VirtualDubMod 1.5.10.2 (build 2540/release)
Writing library                : VirtualDubMod build 2540/release
Video
ID                             : 0
Format                         : MPEG-4 Visual
Format profile                 : Advanced Simple@L5
Format settings, BVOP          : 2
Format settings, QPel          : No
Format settings, GMC           : No warppoints
Format settings, Matrix        : Custom
Codec ID                       : XVID
Codec ID/Hint                  : XviD
Duration                       : 1 h 48 min
Bit rate                       : 1 596 kb/s
Width                          : 720 pixels
Height                         : 304 pixels
Display aspect ratio           : 2.35:1
Frame rate                     : 24.000 FPS
Color space                    : YUV
Chroma subsampling             : 4:2:0
Bit depth                      : 8 bits
Scan type                      : Progressive
Compression mode               : Lossy
Bits/(Pixel*Frame)             : 0.304
Stream size                    : 1.21 GiB (89%)
Writing library                : XviD 1.2.1 (UTC 2008-12-04)
Audio
ID                             : 1
Format                         : AC-3
Format/Info                    : Audio Coding 3
Mode extension                 : CM (complete main)
Format settings, Endianness    : Big
Codec ID                       : 2000
Duration                       : 1 h 48 min
Bit rate mode                  : Constant
Bit rate                       : 192 kb/s
Channel(s)                     : 2 channels
Channel positions              : Front: L R
Sampling rate                  : 48.0 kHz
Frame rate                     : 31.250 FPS (1536 spf)
Compression mode               : Lossy
Stream size                    : 150 MiB (11%)
Alignment                      : Split accross interleaves
Interleave, duration           : 42  ms (1.00 video frame)
Interleave, preload duration   : 500  ms

Скриншоты

       
[darkos.club].t300409.torrent 
Torrent: Registered   [ 2016-08-08 17:31 ]

Download

15 KB

Воспроизвести онлайн

Status: checked
Completed: 15 times
Size: 1.37 GB, InfoHash (Google it!)
Score:  4 (vote: 2)
Default: 2  Thank you   (list)
 
Other forum [Profile] [PM]
Display posts from previous:    
Reply to topic

The time now is: Today 21:39

All times are GMT + 3 Hours



You cannot post new topics in this forum
You cannot reply to topics in this forum
You cannot edit your posts in this forum
You cannot delete your posts in this forum
You cannot vote in polls in this forum
You cannot attach files in this forum
You can download files in this forum