Сегодня идет свободное скачивание без начисления Download

Стрела / Arrow (2015) (сезон 4, серии 1-23 из 23) WEB-DLRip LostFilm

Ответить на тему
 
Автор
Сообщение

Russian Mafia ®

Пол:

Стаж: 3 года 5 месяцев

Сообщений: 343

Торрент-статистика

Пост 08-Авг-2016 16:59

[Цитировать]

Стрела / Arrow (2015) WEB-DLRip (сезон 4, серии 1-23 из 23)
«Судьба оставляет свой отпечаток»
- Производство: США / Berlanti Productions, DC Entertainment, Warner Bros. Television
Жанр: боевик, приключения, криминал
Режиссер: Джон Беринг, Майкл Шульц
Актеры: Стивен Амелл, Кэти Кэссиди, Уилла Холлэнд, Дэвид Рэмси, Пол Блекторн, Эмили Бетт Рикардс, Джон Барроумен, Колтон Хэйнс, Сюзанна Томпсон и др.
Описание:
После кораблекрушения плейбой миллиардер Оливер Куин пропадает и считается погибшим в течение пяти лет, после чего его обнаруживают живым на затерянном острове в Тихом океане. Когда он возвращается домой в Старлинг-Сити, его преданная мать Мойра, столь любимая сестра Теа и лучший друг Томми приветствуют его дома, но они видят, что Оливер изменился после испытаний на острове. Хотя Оливер скрывает правду о человеке, которым он стал…

Продолжительность: ~00:42:00 серия
Качество видео: WEB-DLRip
Перевод: Многоголосый закадровый, профессиональный - LostFilm
Видео: XviD, 720x400 (16:9), ~1733 kb/s
Аудио Rus: MPEG Layer 3, 48,0 kHz, 2 ch, 192 kb/s — многоголосый закадровый

MediaInfo

Код:
Общее
Полное имя                               : D:\Стрела (сезон 4) Arrow (2015) WEB-DLRip - LostFilm\Arrow.S04E01.rus.LostFilm.TV.avi
Формат                                   : AVI
Формат/Информация                        : Audio Video Interleave
Размер файла                             : 590 Мбайт
Продолжительность                        : 42 м.
Режим общего битрейта                    : Переменный
Общий поток                              : 1935 Кбит/сек
Программа кодирования                    : Nandub v1.0rc2
Библиотека кодирования                   : Nandub build 1853/release
Видео
Идентификатор                            : 0
Формат                                   : MPEG-4 Visual
Профиль формата                          : Advanced Simple@L5
Параметр BVOP формата                    : Нет
Параметр QPel формата                    : Нет
Параметр GMC формата                     : Без точки перехода
Параметр матрицы формата                 : Default (H.263)
Идентификатор кодека                     : XVID
Идентификатор кодека/Подсказка           : XviD
Продолжительность                        : 42 м.
Битрейт                                  : 1733 Кбит/сек
Ширина                                   : 720 пикселей
Высота                                   : 400 пикселей
Соотношение сторон                       : 16:9
Частота кадров                           : 23,976 кадра/сек
Цветовое пространство                    : YUV
Субдискретизация насыщенности            : 4:2:0
Битовая глубина                          : 8 бит
Тип развёртки                            : Прогрессивная
Метод сжатия                             : С потерями
Бит/(Пиксели*Кадры)                      : 0.251
Размер потока                            : 528 Мбайт (90%)
Библиотека кодирования                   : XviD 1.2.1 (UTC 2008-12-04)
Аудио
Идентификатор                            : 1
Формат                                   : MPEG Audio
Версия формата                           : Version 1
Профиль формата                          : Layer 3
Режим                                    : Joint stereo
Расширение режима                        : MS Stereo
Идентификатор кодека                     : 55
Идентификатор кодека/Подсказка           : MP3
Продолжительность                        : 42 м.
Вид битрейта                             : Переменный
Битрейт                                  : 192 Кбит/сек
Каналы                                   : 2 канала
Частота                                  : 48,0 КГц
Метод сжатия                             : С потерями
Размер потока                            : 57,7 Мбайт (10%)
Выравнивание                             : Соединение по промежуткам
Продолжительность промежутка             : 24  мс. (0,58 видеокадр)
Время предзагрузки промежутка            : 487  мс.
Библиотека кодирования                   : LAME3.97b
Настройки программы                      : -m j -V 4 -q 3 -lowpass 18.6 --abr 192

Список серий

01. Green Arrow / Зелёная стрела
02. The Candidate / Кандидат
03. Restoration / Возрождение
04. Beyond Redemption / Без надежды
05. Haunted / Призраки
06. Lost Souls / Заблудшие души
07. Brotherhood / Братство
08. Legends of Yesterday / Легенды вчерашнего дня
09. Dark Waters / Пучины тьмы
10. Blood Debts / Кровные долги
11. A.W.O.L. / Самоволка
12. Unchained / Освобожденная
13. Sins of the Father / Грехи отцов
14. Code of Silence / Кодекс молчания
15. Taken / Похищенный
16. Broken Hearts / Разбитые сердца
17. Beacon of Hope / Маяк надежды
18. Eleven-Fifty-Nine / 23:59
19. Canary Cry / Крик Канарейки
20. Genesis / Генезис
21. Monument Point / Моньюмент-Пойнт
22. Lost in the Flood / Потери в потопе
23. Schism / Раскол

Скриншоты

     
Вне форума [Профиль] [ЛС]
Похожие темы
Форум Тема Автор Торрент Отв. Посл. сообщение
./templates/default/images/folder_dl.gif Фантастика, фэнтези, ужасы, мистика Владимир Стрельников | Опасные тропы. Рядовой срочной службы (2017) [MP3] }{@R0N
1 | 0

0 | 676

6

2018-01-14 16:42
}{@R0N Последнее
./templates/default/images/folder_dl.gif Фантастика, фэнтези, ужасы, мистика Владимир Стрельников | Простые Оружные Парни (2017) [MP3] }{@R0N
1 | 0

0 | 672

6

2018-01-14 16:43
}{@R0N Последнее
Показать сообщения:    
Ответить на тему

Текущее время: Сегодня 09:59

Часовой пояс: GMT + 3



Вы не можете начинать темы
Вы не можете отвечать на сообщения
Вы не можете редактировать свои сообщения
Вы не можете удалять свои сообщения
Вы не можете голосовать в опросах
Вы не можете прикреплять файлы к сообщениям
Вы не можете скачивать файлы