Сегодня идет свободное скачивание без начисления Download

Игра Престолов / Games of Thrones (2014) (сезон 4, серии 1-10 из 10) [BDRip 1080p] Кравец, LostFilm

Ответить на тему
 
Автор
Сообщение

Russian Mafia ®

Пол:

Стаж: 3 года 7 месяцев

Сообщений: 343

Торрент-статистика

Пост 08-Авг-2016 16:08

[Цитировать]

Игра Престолов / Games of Thrones (2014) (сезон 4, серии 1-10 из 10) BDRip 1080p Кравец, LostFilm - Производство: США, Великобритания / Bighead Littlehead, Created By, Generator Entertainment, Home Box Office (HBO), Television 360
Жанр: фэнтези, драма, приключения
Режиссер: Алан Тейлор, Алекс Грейвз, Даниэль Минахан
Актеры: Лина Хиди, Питер Динклэйдж, Мишель Фэйрли, Эмилия Кларк, Кит Харингтон, Шон Бин, Николай Костер-Вальдау, Айэйн Глен, Марк Эдди, Эйден Гиллен и др.
Описание:
В захватывающем четвертом сезоне сериала по мотивам бестселлеров Джорджа Р. Р. Мартина, Ланнистеры продолжают править Вестеросом с железного трона, но сумеет ли семейство справиться с собственным его и пережить интриги многочисленных врагов? Непоколебимый Станнис Баретеон восстанавливает свою армию на драконьем камне, а с юга надвигается новая опасность- Оберин Мертелл по прозвищу «Красный змей дорна», презирающий дом Ланнистеров, приезжает в королевскую гавань на свадьбу Джоффри, на стене ночному дозору противостоят превосходные силы Манса Налетчика и его армии одичалых, за которыми следует куда более зловещий враг, тем временем Дейенерис Таргариен вместе с тремя драконами и армией безупречных намеревается «освободить» крупнейший восточный город работорговцев- Миэрин, что должно помочь ей набрать сил для выполнения главнейшей цели- вернуть железный трон своей семье.
Продолжительность: ~00:55:00 серия
Качество видео: BDRip
Перевод: Дублированный - студия "Kravec";
Многоголосый закадровый, профессиональный - LostFilm
Видео: AVC/H.264, 1920x1080 (16:9), ~24,9 mbps
Аудио Rus: DTS, 6 ch, 768 kbps, CBR - дублированный
Аудио Rus: DTS, 6 ch, 1940 kbps, CBR - многоголосый закадровый
Аудио Eng: DTS, 6 ch, 1901 kbps, CBR - оригинал

Mediainfo:

Код:
E:\Фильмы\Игра Престолов (4 Сезон) [2014]\Game.Of.Thrones_S04_E01.mkv
   General
      Unique ID : 231088705689009114740278062467299683497 (0xADDA10D8E620E40B8360BF058E142CA9)
      Complete name : E:\Фильмы\Игра Престолов (4 Сезон) [2014]\Game.Of.Thrones_S04_E01.mkv
      Format : Matroska
      Format version : Version 4 / Version 2
      File size : 12.0 GiB
      Duration : 58mn 43s
      Overall bit rate mode : Variable
      Overall bit rate : 29.2 Mbps
      Encoded date : UTC 2016-07-29 10:56:53
      Writing application : mkvmerge v9.2.0 ('Photograph') 64bit
      Writing library : libebml v1.3.3 + libmatroska v1.4.4
   Video #1
      ID : 1
      Format : AVC
      Format/Info : Advanced Video Codec
      Format profile : [url=mailto:High@L4.1]High@L4.1[/url]
      Format settings, CABAC : Yes
      Format settings, ReFrames : 4 frames
      Codec ID : V_MPEG4/ISO/AVC
      Duration : 58mn 13s
      Bit rate mode : Variable
      Bit rate : 24.9 Mbps
      Maximum bit rate : 33.0 Mbps
      Width : 1 920 pixels
      Height : 1 080 pixels
      Display aspect ratio : 16:9
      Frame rate mode : Constant
      Frame rate : 23.976 (24000/1001) fps
      Color space : YUV
      Chroma subsampling : 4:2:0
      Bit depth : 8 bits
      Scan type : Progressive
      Bits/(Pixel*Frame) : 0.500
      Stream size : 10.1 GiB (84%)
      Default : Yes
      Forced : No
   Audio #2
      ID : 2
      Format : DTS
      Format/Info : Digital Theater Systems
      Mode : 16
      Format settings, Endianness : Big
      Codec ID : A_DTS
      Duration : 58mn 13s
      Bit rate mode : Constant
      Bit rate : 768 Kbps
      Channel(s) : 6 channels
      Channel positions : Front: L C R, Side: L R, LFE
      Sampling rate : 48.0 KHz
      Frame rate : 93.750 fps (512 spf)
      Bit depth : 24 bits
      Compression mode : Lossy
      Stream size : 320 MiB (3%)
      Title : Полное дублирование, Студия "Kravec"
      Language : Russian
      Default : Yes
      Forced : No
   Audio #3
      ID : 3
      Format : DTS
      Format/Info : Digital Theater Systems
      Format profile : MA / Core
      Mode : 16
      Format settings, Endianness : Big
      Codec ID : A_DTS
      Duration : 58mn 43s
      Bit rate mode : Variable / Constant
      Bit rate : 1 920 Kbps / 1 509 Kbps
      Channel(s) : 6 channels
      Channel positions : Front: L C R, Side: L R, LFE
      Sampling rate : 48.0 KHz
      Frame rate : 93.750 fps (512 spf)
      Bit depth : 16 bits
      Compression mode : Lossless / Lossy
      Stream size : 814 MiB (7%)
      Title : Многоголосый закадровый, LostFilm.TV
      Language : Russian
      Default : No
      Forced : No
   Audio #4
      ID : 4
      Format : DTS
      Format/Info : Digital Theater Systems
      Format profile : MA / Core
      Mode : 16
      Format settings, Endianness : Big
      Codec ID : A_DTS
      Duration : 58mn 13s
      Bit rate mode : Variable / Constant
      Bit rate : 1 920 Kbps / 1 509 Kbps
      Channel(s) : 6 channels
      Channel positions : Front: L C R, Side: L R, LFE
      Sampling rate : 48.0 KHz
      Frame rate : 93.750 fps (512 spf)
      Bit depth : 16 bits
      Compression mode : Lossless / Lossy
      Stream size : 791 MiB (6%)
      Language : English
      Default : No
      Forced : No

Avdump

File: E:\Фильмы\Игра Престолов (4 Сезон) [2014]\Game.Of.Thrones_S04_E01.mkv
Duration: 00:58:43 (3523.13) - WARNING: Differs from video duration! (30.05 sec)
Track #1: video
lang: und (1)
codc: V_MPEG4/ISO/AVC -> H264/AVC (22)
reso: 1920x1080 -> 16:9
fram: 23.976025 fps
rate: 24856 kbps (24856.312500)
dura: 00:58:13 (3493.072998)
size: 10.11 GB (10853114618)
Track #2: audio (￐゚￐ᄒ￐ᄏ￐ᄑ￐ᄒ￐ᄉ ￐ᄡ￑テ￐ᄆ￐ᄏ￐ᄌ￑タ￐ᄒ￐ᄇ￐ᄚ￐ᄑ￐ᄌ￐ᄉ, ￐ᄀ￑ツ￑テ￐ᄡ￐ᄌ￑マ "Kravec")
lang: rus -> Russian (15)
codc: A_DTS -> DTS (13)
chan: 6 -> 5.1 Surround
samp: 48000 Hz
rate: 768 kbps (768.11)
dura: 00:58:13 (3493.10)
size: 319.85 MB (335384015)
Track #3: audio (￐ワ￐ᄑ￐ᄒ￐ᄈ￐ᄒ￐ᄈ￐ᄒ￐ᄏ￐ᄒ￑チ￑ヒ￐ᄍ ￐ᄋ￐ᄚ￐ᄎ￐ᄚ￐ᄡ￑タ￐ᄒ￐ᄇ￑ヒ￐ᄍ, LostFilm.TV)
lang: rus -> Russian (15)
codc: A_DTS -> DTS (13)
chan: 6 -> 5.1 Surround
samp: 48000 Hz
rate: 1940 kbps (1939.98)
dura: 00:58:43 (3523.10)
size: 814.76 MB (854342970)
Track #4: audio
lang: Unknown (1)
codc: A_DTS -> DTS (13)
chan: 6 -> 5.1 Surround
samp: 48000 Hz
rate: 1901 kbps (1901.48)
dura: 00:58:13 (3493.10)
size: 791.79 MB (830255350)
Sizes: (check sanity)
disk: 11.99 GB (12875003688)
trac: 3.99 GB (4283162361) [based on track size]
bitr: 11.98 GB (12865804835) [based on bitrate]
tdif: 8.00 GB (8591841327) 66.73%
bdif: 8.77 MB (9198852) 0.07%

Список серий

Серия (1) Два меча / Two Swords
Серия (2) Лев и Роза / The Lion and the Rose
Серия (3) Разрушительница оков / Breaker of Chains
Серия (4) Верный клятве / Oathkeeper
Серия (5) Первый этого имени / First of His Name
Серия (6) Законы богов и людей / The Laws of Gods and Men
Серия (7) Пересмешник / Mockingbird
Серия (8) Гора и Змей / The Mountain and the Viper
Серия (9) Дозорные на Стене / The Watchers on the Wall
Серия (10) Дети / The Children

Скриншоты

       
Вне форума [Профиль] [ЛС]
Показать сообщения:    
Ответить на тему

Текущее время: Сегодня 18:40

Часовой пояс: GMT + 3



Вы не можете начинать темы
Вы не можете отвечать на сообщения
Вы не можете редактировать свои сообщения
Вы не можете удалять свои сообщения
Вы не можете голосовать в опросах
Вы не можете прикреплять файлы к сообщениям
Вы не можете скачивать файлы