Сегодня идет свободное скачивание без начисления Download

Очень странные дела / Крайне странные события / Stranger Things / Сезон: 1 / Серии: 1-8 из 8 (Мэтт Даффер, Росс Даффер, Шон Леви) [2016, Ужасы, триллер, драма, WEBRip] MVO (Jaskier) + Original + Subs (Rus, Eng)

Ответить на тему
 
Автор
Сообщение

Omen ®

Стаж: 5 лет 6 месяцев

Сообщений: 186946

Торрент-статистика

Пост 08-Авг-2016 01:01

[Цитировать]

--Крайне странные события | Stranger Things-- ✧ Год выпуска: 2016
✧ Страна: США
✧ Жанр: ужасы, триллер, драма
✧ Продолжительность: ~ 00:48:00-✧ Перевод: Профессиональный (многоголосый закадровый) | Jaskier-✧ Режиссёр: Мэтт Даффер, Росс Даффер, Шон Леви-✧ В ролях: Вайнона Райдер, Дэвид Харбор, Кара Буоно, Милли Бобби Браун, Наталия Дайер, Чарли Хитон, Калеб МакЛафлин, Ной Шнапп и др.-✧ Описание: Главное действие нового телевизионного сериала разворачивается в 80-х годах на территории тихого провинциального города. Благоприятное течение местной жизни нарушает загадочное исчезновение подростка по имени Уилл. Выяснить обстоятельства дела, полны решимости родные мальчика и местный шериф. Также события затрагивают лучшего друга Уилла – Майка. Он начинает собственное расследование, в процессе которого встречает группу людей со сверхспособностями. Теперь Майк уверен, что близок к разгадке, однако для этого ему предстоит оказаться в эпицентре ожесточенной битвы потусторонних сил.- --✧ Качество: WEBRip
✧ Формат: AVI
✧ Видео: XviD, 704x352 (2,000), 23,976 fps, ~ 1999 kbps
✧ Аудио #1: 48 kHz, AC3, 3/2 (L,C,R,l,r) + LFE ch, ~384.00 kbps avg - Rus
✧ Аудио #2: 48 kHz, AC3, 3/2 (L,C,R,l,r) + LFE ch, ~384.00 kbps avg - Eng
✧ Субтитры: | Русские (alesandra) | английские |-✧ Релиз без рекламы-

〤 Релиз 〤

Перевод и озвучивание Студия Jaskier
Работа со звуком: k-marat-s

〤 MediaInfo 〤

Код:
Общее
Полное имя                               : D:\загрузки\Stranger Things (Season 01) CasStudio\Stranger.Things.S01E01.WEBRip.Rus.Eng.CasStudio.TV.avi
Формат                                   : AVI
Формат/Информация                        : Audio Video Interleave
Размер файла                             : 945 Мбайт
Продолжительность                        : 47 м.
Общий поток                              : 2781 Кбит/сек
Программа кодирования                    : VirtualDubMod 1.5.10.3 | www.virtualdub-fr.org || (build 2550/release)
Библиотека кодирования                   : VirtualDubMod build 2550/release
Видео
Идентификатор                            : 0
Формат                                   : MPEG-4 Visual
Профиль формата                          : Advanced Simple@L5
Параметр BVOP формата                    : 1
Параметр QPel формата                    : Нет
Параметр GMC формата                     : Без точки перехода
Параметр матрицы формата                 : Default (MPEG)
Идентификатор кодека                     : XVID
Идентификатор кодека/Подсказка           : XviD
Продолжительность                        : 47 м.
Битрейт                                  : 1999 Кбит/сек
Ширина                                   : 704 пикселя
Высота                                   : 352 пикселя
Соотношение сторон                       : 2,000
Частота кадров                           : 23,976 кадра/сек
Цветовое пространство                    : YUV
Субдискретизация насыщенности            : 4:2:0
Битовая глубина                          : 8 бит
Тип развёртки                            : Прогрессивная
Метод сжатия                             : С потерями
Бит/(Пиксели*Кадры)                      : 0.336
Размер потока                            : 679 Мбайт (72%)
Библиотека кодирования                   : XviD 73
Аудио #1
Идентификатор                            : 1
Формат                                   : AC-3
Формат/Информация                        : Audio Coding 3
Расширение режима                        : CM (complete main)
Параметр Endianness формата              : Big
Идентификатор кодека                     : 2000
Продолжительность                        : 47 м.
Вид битрейта                             : Постоянный
Битрейт                                  : 384 Кбит/сек
Каналы                                   : 6 каналов
Расположение каналов                     : Front: L C R, Side: L R, LFE
Частота                                  : 48,0 КГц
Битовая глубина                          : 16 бит
Метод сжатия                             : С потерями
Размер потока                            : 131 Мбайт (14%)
Выравнивание                             : Разделение по промежуткам
Продолжительность промежутка             : 42  мс. (1,00 видеокадр)
Время предзагрузки промежутка            : 500  мс.
Аудио #2
Идентификатор                            : 2
Формат                                   : AC-3
Формат/Информация                        : Audio Coding 3
Расширение режима                        : CM (complete main)
Параметр Endianness формата              : Big
Идентификатор кодека                     : 2000
Продолжительность                        : 47 м.
Вид битрейта                             : Постоянный
Битрейт                                  : 384 Кбит/сек
Каналы                                   : 6 каналов
Расположение каналов                     : Front: L C R, Side: L R, LFE
Частота                                  : 48,0 КГц
Битовая глубина                          : 16 бит
Метод сжатия                             : С потерями
Размер потока                            : 131 Мбайт (14%)
Выравнивание                             : Разделение по промежуткам
Продолжительность промежутка             : 42  мс. (1,00 видеокадр)
Время предзагрузки промежутка            : 500  мс.

〤 Скриншоты 〤

-
Вне форума [Профиль] [ЛС]
Показать сообщения:    
Ответить на тему

Текущее время: Сегодня 00:28

Часовой пояс: GMT + 3



Вы не можете начинать темы
Вы не можете отвечать на сообщения
Вы не можете редактировать свои сообщения
Вы не можете удалять свои сообщения
Вы не можете голосовать в опросах
Вы не можете прикреплять файлы к сообщениям
Вы не можете скачивать файлы