Сегодня идет свободное скачивание без начисления Download

Белые негры / Black-ish / Сезон: 2 / Серии: 1-24 (24) (Matt Sohn) [2015, США, комедия, WEBRip 720p] DVO (Kiitos)

Ответить на тему
 
Автор
Сообщение

Omen ®

Стаж: 5 лет 11 месяцев

Сообщений: 184329

Торрент-статистика

Пост 08-Авг-2016 01:01

[Цитировать]

Белые негры / Black-ish
Год выпуска: 2015
Страна: США
Жанр: комедия
Продолжительность: ~21
Перевод: Любительский (двухголосый закадровый) Kiitos
Перевод: Инна Елисеева
Озвучивание: kiitos, Chertenok
Рип: kiitos
Cведение: kiitos
Режиссёр: Matt Sohn
В ролях: Энтони Андерсон, Трэйси Эллис Росс, Яра Шахиди, Маркус Скрибнер, Майлз Браун, Марсаи Мартин, Лоренс Фишбёрн
Описание: Смешной ситком об успешной негритянской семье, которая из бедных городских «черных» районов переехала богатое «белое» предместье, где она пытается, с одной стороны адаптироваться к новым условиям и не отличаться от других жителей этого района, а с другой стороны сохранить свою идентичность и культуру.
Качество: WEBRip 720p
Контейнер: MKV
Видео:AVC, 1280x720 (16:9) 23.976fps 4042kbps
Аудио: RUS: Dolby AC3 48000Hz 6ch 384kbps
Субтитры: нет
[url=tracker.php?f=189,2366&nm=Black+ish]Ссылка на предыдущие и альтернативные раздачи[/url]
Сэмпл

MediaInfo

Общее
Формат : Matroska
Версия формата : Version 4 / Version 2
Размер файла : 682 Мбайт
Продолжительность : 21 м.
Общий поток : 4427 Кбит/сек
Дата кодирования : UTC 2016-05-29 01:14:10
Программа кодирования : mkvmerge v8.3.0 ('Over the Horizon') 64bit
Библиотека кодирования : libebml v1.3.1 + libmatroska v1.4.2
Видео
Идентификатор : 1
Формат : AVC
Формат/Информация : Advanced Video Codec
Профиль формата : High@L3.1
Параметр CABAC формата : Да
Параметр ReFrames формата : 4 кадра
Идентификатор кодека : V_MPEG4/ISO/AVC
Продолжительность : 21 м.
Битрейт : 4042 Кбит/сек
Ширина : 1280 пикселей
Высота : 720 пикселей
Соотношение сторон : 16:9
Режим частоты кадров : Постоянный
Частота кадров : 23,976 (24000/1001) кадра/сек
Цветовое пространство : YUV
Субдискретизация насыщенности : 4:2:0
Битовая глубина : 8 бит
Тип развёртки : Прогрессивная
Бит/(Пиксели*Кадры) : 0.183
Размер потока : 622 Мбайт (91%)
Библиотека кодирования : x264 core 130 r2273 b3065e6
Настройки программы : cabac=1 / ref=3 / deblock=1:0:0 / analyse=0x3:0x113 / me=hex / subme=7 / psy=1 / psy_rd=1.00:0.00 / mixed_ref=1 / me_range=16 / chroma_me=1 / trellis=1 / 8x8dct=1 / cqm=0 / deadzone=21,11 / fast_pskip=1 / chroma_qp_offset=-2 / threads=12 / lookahead_threads=2 / sliced_threads=0 / nr=0 / decimate=1 / interlaced=0 / bluray_compat=0 / constrained_intra=0 / bframes=3 / b_pyramid=2 / b_adapt=1 / b_bias=0 / direct=3 / weightb=1 / open_gop=0 / weightp=2 / keyint=250 / keyint_min=23 / scenecut=40 / intra_refresh=0 / rc_lookahead=40 / rc=2pass / mbtree=1 / bitrate=4042 / ratetol=1.0 / qcomp=0.60 / qpmin=0 / qpmax=69 / qpstep=4 / cplxblur=20.0 / qblur=0.5 / ip_ratio=1.40 / aq=1:1.00
Default : Да
Forced : Нет
Аудио
Идентификатор : 2
Формат : AC-3
Формат/Информация : Audio Coding 3
Расширение режима : CM (complete main)
Параметр Endianness формата : Big
Идентификатор кодека : A_AC3
Продолжительность : 21 м.
Вид битрейта : Постоянный
Битрейт : 384 Кбит/сек
Каналы : 6 каналов
Расположение каналов : Front: L C R, Side: L R, LFE
Частота : 48,0 КГц
Частота кадров : 31,250 кадров/сек (1536 spf)
Метод сжатия : С потерями
Размер потока : 59,1 Мбайт (9%)
Заголовок : kiitos.tv
Язык : Russian
Default : Да
Forced : Нет

Скриншоты

Вне форума [Профиль] [ЛС]
Показать сообщения:    
Ответить на тему

Текущее время: Сегодня 21:02

Часовой пояс: GMT + 3



Вы не можете начинать темы
Вы не можете отвечать на сообщения
Вы не можете редактировать свои сообщения
Вы не можете удалять свои сообщения
Вы не можете голосовать в опросах
Вы не можете прикреплять файлы к сообщениям
Вы не можете скачивать файлы