Сегодня идет свободное скачивание без начисления Download

Оккупация / Французский городок / Un village francais / Un village français / Сезон: 5 / Серии: 1-2 из 12 (Жан-Марк Брондоло / Jean-Marc Brondolo) [2013, Франция, военная драма, экранизация, DVB] Original (Fre) + Rus Sub (Eclair Media)

Ответить на тему
 
Автор
Сообщение

Omen ®

Стаж: 5 лет 11 месяцев

Сообщений: 184329

Торрент-статистика

Пост 08-Авг-2016 01:00

[Цитировать]

Оккупация
Un village français- Год выпуска: 2013
Страна: Франция, Бельгия
Жанр: исторический, военная драма, экранизация
Продолжительность: 00:45:00Перевод: Субтитры (русский перевод М.Лабори, М.Кузиной, Éclair Media)
Режиссёр: Жан-Марк Брондоло / Jean-Marc Brondolo
В ролях: Робен Ренуччи / Robin Renucci (Daniel Larcher), Тьерри Годар / Thierry Godard (Raymond Schwartz), Николя Гоб / Nicolas Gob (Jean Marchetti), Одри Флёро / Audrey Fleurot (Hortense), Фабрицио Ронджоне / Fabrizio Rongione (Marcel), Мари Кремер / Marie Kremer (Lucienne), Над Дьё / Nade Dieu (Marie), Франсуа Лорике / François Loriquet (Bériot), Бернар Бланкан / Bernard Blancan (Anselme)
Описание: По 5-томному циклу романов французского писателя, автора песен и режиссера Алена Ада / Alain Ade "Французская деревня / Un Village français: 1940, 1941, 1942, 1943, 1944" (2009-2015).
Многосерийная французская телевизионная драма о вымышленном городке Вильнёв, оккупированном немцами во время Второй мировой войны. Четыре жутких года, которые зрители проживут с Даниэлем, Марселем, Мари, Реймоном, Люсьеной и многими другими, в мире, где ежедневно присутствуют страх, голод, риск, опасность, лишения. Четыре года зритель будет наблюдать за судьбами этих простых людей, познавать их недостатки, открывать секреты и сопереживать их способности выживать в смутное и непростое время...
Доп. информация: Hot Bird (13.0°E) TV5MONDE Europe DVB-S
Награды: приз Festival Séries Mania 2013 в категории "Лучший французский сериал"; номинация на "Хрустальный глобус" за лучший телесериал Globes de Cristal Awards (France) 2014 от Ассоциации французской прессы.

Качество: DVB
Формат: MKV
Видео: MPEG Video 2, 720x576@1024x576 (16:9), 25 fps, ~2888 kbps avg, 0.279 bit/pixel
Аудио: MPEG Audio 2, 2 ch, 48 kHz, 192 kbps - французский
Субтитры: русские, немецкие, нидерландские, румынские - prerendered (IDX+SUB); английские, французские - softsub (SRT)

Список серий

Сезон 5, Эпизод 01: Принудительный труд / Travail obligatoire (2013)Сезон 5, Эпизод 02: Заключение союзов / Le jour des alliances (2013)

MediaInfo

GeneralUnique ID : 185822938568674842683709753115586024555 (0x8BCC32387B58168ABDBA9C8FB0C7546B)Complete name : [apreder]Un_village_francais_s.5_ep.01(2013)DVB.mkvFormat : MatroskaFormat version : Version 2File size : 999 MiBDuration : 44 minOverall bit rate mode : VariableOverall bit rate : 3 143 kb/sMovie name : Un village franзaisReleased date : 2013-00-00Encoded date : UTC 2016-08-07 10:43:46Writing application : mkvmerge v9.3.1 ('Mask Machine') 64bitWriting library : libebml v1.3.4 + libmatroska v1.4.5Cover : YesAttachments : cover.jpg / small_cover.jpgACTOR : Robin Renucci, Thierry Godard, Nicolas GobDIRECTOR : Jean-Marc BrondoloGENRE : DramaIMDB : tt3592582KEYWORDS : rutracker.orgLAW_RATING : 16+SUMMARY : s.5, ep.01 Travail obligatoire
VideoID : 1Format : MPEG VideoFormat version : Version 2Format profile : Main@MainFormat settings, BVOP : YesFormat settings, Matrix : CustomFormat settings, GOP : M=4, N=12Format settings, picture structure : FrameCodec ID : V_MPEG2Codec ID/Info : MPEG 1 or 2 VideoDuration : 44 minBit rate mode : VariableBit rate : 2 888 kb/sWidth : 720 pixelsHeight : 576 pixelsDisplay aspect ratio : 16:9Frame rate mode : ConstantFrame rate : 25.000 FPSStandard : PALColor space : YUVChroma subsampling : 4:2:0Bit depth : 8 bitsScan type : InterlacedScan order : Top Field FirstCompression mode : LossyBits/(Pixel*Frame) : 0.279Time code of first frame : 00:00:00:00Time code source : Group of pictures headerGOP, Open/Closed : OpenGOP, Open/Closed of first frame : ClosedStream size : 918 MiB (92%)Default : YesForced : No
AudioID : 2Format : MPEG AudioFormat version : Version 1Format profile : Layer 2Mode : Joint stereoMode extension : Intensity Stereo + MS StereoCodec ID : A_MPEG/L2Codec ID/Hint : MP2Duration : 44 minBit rate mode : ConstantBit rate : 192 kb/sChannel(s) : 2 channelsSampling rate : 48.0 kHzCompression mode : LossyStream size : 61.0 MiB (6%)Language : FrenchDefault : YesForced : No
Text #1ID : 3Format : VobSubCodec ID : S_VOBSUBCodec ID/Info : Picture based subtitle format used on DVDsLanguage : RussianDefault : NoForced : No
Text #2ID : 4Format : UTF-8Codec ID : S_TEXT/UTF8Codec ID/Info : UTF-8 Plain TextLanguage : EnglishDefault : NoForced : No
Text #3ID : 5Format : UTF-8Codec ID : S_TEXT/UTF8Codec ID/Info : UTF-8 Plain TextLanguage : FrenchDefault : NoForced : No
Text #4ID : 6Format : VobSubCodec ID : S_VOBSUBCodec ID/Info : Picture based subtitle format used on DVDsLanguage : GermanDefault : NoForced : No
Text #5ID : 7Format : VobSubCodec ID : S_VOBSUBCodec ID/Info : Picture based subtitle format used on DVDsLanguage : DutchDefault : NoForced : No
Text #6ID : 8Format : VobSubCodec ID : S_VOBSUBCodec ID/Info : Picture based subtitle format used on DVDsLanguage : RomanianDefault : NoForced : No

Скриншоты


Резервные скриншоты


-

Внимание! Раздача ведётся путём добавления новых выпусков

Внимание! Раздача ведётся путём добавления новых выпусков; при каждом добавлении создаётся новый торрент. Чтобы начать докачку нового выпуска, пользователям необходимо сделать следующее:
(1) остановить скачивание,
(2) удалить старый торрент у себя из клиента (старые серии удалять не надо),
(3) скачать новый торрент и запустить его у себя в клиенте вместо старого, при этом указать клиенту путь в старую папку куда и должно происходить скачивание новых выпусков.
Ваш клиент при этом должен произвести хеширование (проверку) старой папки (если не производит сам - помогите ему сделать это). В результате он будет докачивать только те выпуски, которых у Вас ещё нет. Старые выпуски при этом не удаляются, а продолжают раздаваться!
Eсли Вы уже удалили старые выпуски, то предотвратить их повторную закачку можно, сняв галочки в соответствующих местах при запуске нового торрента. По возможности, желательно не удалять старые выпуски как можно дольше, чтобы релизёр не только продолжал раздавать старые выпуски, но и смог сконцентрироваться на новых.
-[3'137]
Вне форума [Профиль] [ЛС]
Показать сообщения:    
Ответить на тему

Текущее время: Сегодня 10:22

Часовой пояс: GMT + 3



Вы не можете начинать темы
Вы не можете отвечать на сообщения
Вы не можете редактировать свои сообщения
Вы не можете удалять свои сообщения
Вы не можете голосовать в опросах
Вы не можете прикреплять файлы к сообщениям
Вы не можете скачивать файлы