Сегодня идет свободное скачивание без начисления Download

Возвращение в Брайдсхед / Brideshead Revisited / Серии: 1-11 из 11 (Чарльз Старридж / Charles Sturridge, Майкл Линдсей-Хогг / Michael Lindsay-Hogg) [1981, драма, экранизация, HDRip] MVO + Sub Rus + Original Eng

Ответить на тему
 
Автор
Сообщение

Omen ®

Стаж: 5 лет 6 месяцев

Сообщений: 186946

Торрент-статистика

Пост 08-Авг-2016 01:00

[Цитировать]

Возвращение в Брайдсхед / Brideshead Revisited
Год выпуска: 1981
Страна: Великобритания
Жанр: драма, экранизация
Продолжительность: 01:44:47 + 00:55:39 + 00:55:37 + 00:55:53 + 00:53:20 + 00:53:30 + 00:53:37 + 00:54:34 + 00:55:50 + 00:54:12 + 01:34:22
Перевод: Профессиональный (многоголосый закадровый)

Режиссёр: Чарльз Старридж / Charles Sturridge, Майкл Линдсей-Хогг / Michael Lindsay-Hogg
В ролях: Джереми Айронс, Энтони Эндрюс, Джон Гилгуд, Дайана Квик, Николас Грейс, Клэр Блум, Дженни Рунакре, Майкл Гоу, Лоуренс Оливье, Стефан Одран
Описание: Это история упадка старинного католического рода Марчмейнов. Повествование ведется от лица главного героя Чарлза Райдера. Случайно оказавшись во время войны в родовом замке Брайдсхед, Райдер вспоминает все происшедшее с ним здесь двадцать лет назад.
Сэмпл
Качество: HDRip [Brideshead.Revisited.1981.1080p.BluRay.x264-FLHD]
Формат: AVI
Видео: 640x480 (1.33:1), 23.976 fps, XviD build 73 ~1999 kbps avg, 0.27 bit/pixel
Аудио: 48 kHz, AC3 Dolby Digital, 2/0 (L,R) ch, ~192 kbps - многоголосый
Аудио: 48 kHz, AC3 Dolby Digital, 2/0 (L,R) ch, ~256 kbps - оригинал
Субтитры: русские

Список серий

01 - И я в Аркадии / Et in Arcadia Ego
02 - Дома и за границей / Home and Abroad
03 - Холодный свет дня / The Bleak Light of Day
04 - Себастьян против всего мира / Sebastian Against the World
05 - Удар по наболевшему месту / A Blow Upon a Bruise
06 - Джулия / Julia
07 - Невидимый крючок / The Unseen Hook
08 - Брайдсхед покинутый / Brideshead Deserted
09 - Сироты шторма / Orphans of the Storm
10 - Дернуть за ниточку / A Twitch Upon the Thread
11 - Возвращение в Брайдсхед / Brideshead Revisited

MediaInfo

Общее
Полное имя : H:\Brideshead.Revisited.1981.hdrip_[teko]\s01e01_Et.in.Arcadia.Ego.avi
Формат : AVI
Формат/Информация : Audio Video Interleave
Размер файла : 1,80 Гбайт
Продолжительность : 1 ч. 44 м.
Общий поток : 2462 Кбит/сек
Программа кодирования : VirtualDubMod 1.5.10.3 | www.virtualdub-fr.org || (build 2550/release)
Библиотека кодирования : VirtualDubMod build 2550/release
Видео
Идентификатор : 0
Формат : MPEG-4 Visual
Профиль формата : Advanced Simple@L5
Параметр BVOP формата : 2
Параметр QPel формата : Нет
Параметр GMC формата : Без точки перехода
Параметр матрицы формата : Выборочная
Идентификатор кодека : XVID
Идентификатор кодека/Подсказка : XviD
Продолжительность : 1 ч. 44 м.
Битрейт : 2000 Кбит/сек
Ширина : 640 пикселей
Высота : 480 пикселей
Соотношение сторон : 4:3
Частота кадров : 23,976 кадра/сек
Цветовое пространство : YUV
Субдискретизация насыщенности : 4:2:0
Битовая глубина : 8 бит
Тип развёртки : Прогрессивная
Метод сжатия : С потерями
Бит/(Пиксели*Кадры) : 0.272
Размер потока : 1,46 Гбайт (81%)
Библиотека кодирования : XviD 73
Аудио #1
Идентификатор : 1
Формат : AC-3
Формат/Информация : Audio Coding 3
Расширение режима : CM (complete main)
Параметр Endianness формата : Big
Идентификатор кодека : 2000
Продолжительность : 1 ч. 44 м.
Вид битрейта : Постоянный
Битрейт : 192 Кбит/сек
Каналы : 2 канала
Расположение каналов : Front: L R
Частота : 48,0 КГц
Битовая глубина : 16 бит
Метод сжатия : С потерями
Размер потока : 144 Мбайт (8%)
Выравнивание : Разделение по промежуткам
Продолжительность промежутка : 42 мс. (1,00 видеокадр)
Время предзагрузки промежутка : 500 мс.
Аудио #2
Идентификатор : 2
Формат : AC-3
Формат/Информация : Audio Coding 3
Расширение режима : CM (complete main)
Параметр Endianness формата : Big
Идентификатор кодека : 2000
Продолжительность : 1 ч. 44 м.
Вид битрейта : Постоянный
Битрейт : 256 Кбит/сек
Каналы : 2 канала
Расположение каналов : Front: L R
Частота : 48,0 КГц
Битовая глубина : 16 бит
Метод сжатия : С потерями
Размер потока : 192 Мбайт (10%)
Выравнивание : Разделение по промежуткам
Продолжительность промежутка : 42 мс. (1,00 видеокадр)
Время предзагрузки промежутка : 500 мс.
-
Вне форума [Профиль] [ЛС]
Похожие темы
Форум Тема Автор Торрент Отв. Посл. сообщение
./templates/default/images/folder_dl.gif Новинки (HD|DVD|BD|WEB|TV|SAT|PDTV|-Rip) Кикбоксер возвращается / Kickboxer: Retaliation (Димитрий Логотетис) [2018 г., боевик, драма, BDRip] AVO | А.Гаврилов Theseus
1 | 0

0 | 310

9

2018-03-20 22:32
Theseus Последнее
Показать сообщения:    
Ответить на тему

Текущее время: Сегодня 14:30

Часовой пояс: GMT + 3



Вы не можете начинать темы
Вы не можете отвечать на сообщения
Вы не можете редактировать свои сообщения
Вы не можете удалять свои сообщения
Вы не можете голосовать в опросах
Вы не можете прикреплять файлы к сообщениям
Вы не можете скачивать файлы