Сегодня идет свободное скачивание без начисления Download

Между / Between / Сезон: 2 / Серии: 1-6 из 6 (Джон Кассар, Майкл МакГоун) [2016, Драма, WEBRip] MVO (NewStudio)

Ответить на тему
 
Автор
Сообщение

Omen ®

Стаж: 6 лет 1 месяц

Сообщений: 184308

Торрент-статистика

Пост 07-Авг-2016 01:01

[Цитировать]

-Между / Between-- Год выпуска: 2016
Страна: Канада/США, Netflix
Жанр: Драма
Продолжительность: 6 х ~ 00:43:00-Перевод: Профессиональный (многоголосый закадровый) | NewStudio-Режиссёр: Джон Кассар, Майкл МакГоун-В ролях: Джим Уотсон, Райан Аллен, Дженнет МакКарди, Уэсли Морган, Джек Мюррэй, Кристал Хоуп Носбаум, Шэйлин Гарнетт, Сара Подемски и др.-Описание: Небольшой городок с живописным названием Красивое озеро сталкивается с ужасающей эпидемией. За 10 дней неведомая чума уничтожает 3412 из 8000 человек населения. Выясняется закономерность - умирают все, кто старше 21 года.-Доп. информация: Рекламный видео ролик вырезан-- ----Качество: WEBRip
Формат: AVI
Видео: MPEG4, XviD, 720x400 (16:9), 23.976 fps, 1 512 Kbps (0.219 bit/pixel)
Аудио: MP3, 48.0 KHz, 2 ch, 128 Kbps, CBR
Субтитры: русские (форсированные, неотключаемые) на надписи-

MediaInfo

Код:
E:\Сериалы\Between.s02.WEBRip.NewStudio\Between.s02e01.WEBRip.NewStudio.avi
General
Complete name : E:\Сериалы\Between.s02.WEBRip.NewStudio\Between.s02e01.WEBRip.NewStudio.avi
Format : AVI
Format/Info : Audio Video Interleave
File size : 497 MiB
Duration : 42mn 7s
Overall bit rate : 1 649 Kbps
Writing application : VirtualDubMod 1.5.10.2 (build 2540/release)
Writing library : VirtualDub build 35491/release
Video #0
ID : 0
Format : MPEG-4 Visual
Format profile : Advanced Simple@L5
Format settings, BVOP : 2
Format settings, QPel : Yes
Format settings, GMC : No warppoints
Format settings, Matrix : Default (MPEG)
Muxing mode : Packed bitstream
Codec ID : XVID
Codec ID/Hint : XviD
Duration : 42mn 7s
Bit rate : 1 512 Kbps
Width : 720 pixels
Height : 400 pixels
Display aspect ratio : 16:9
Frame rate : 23.976 fps
Color space : YUV
Chroma subsampling : 4:2:0
Bit depth : 8 bits
Scan type : Progressive
Compression mode : Lossy
Bits/(Pixel*Frame) : 0.219
Stream size : 455 MiB (92%)
Writing library : XviD 73
Audio #1
ID : 1
Format : MPEG Audio
Format version : Version 1
Format profile : Layer 3
Mode : Joint stereo
Mode extension : MS Stereo
Codec ID : 55
Codec ID/Hint : MP3
Duration : 42mn 7s
Bit rate mode : Constant
Bit rate : 128 Kbps
Channel(s) : 2 channels
Sampling rate : 48.0 KHz
Compression mode : Lossy
Stream size : 38.6 MiB (8%)
Alignment : Aligned on interleaves
Interleave, duration : 42 ms (1.00 video frame)
Interleave, preload duration : 504 ms

Скриншоты


Вне форума [Профиль] [ЛС]
Показать сообщения:    
Ответить на тему

Текущее время: Сегодня 23:45

Часовой пояс: GMT + 3



Вы не можете начинать темы
Вы не можете отвечать на сообщения
Вы не можете редактировать свои сообщения
Вы не можете удалять свои сообщения
Вы не можете голосовать в опросах
Вы не можете прикреплять файлы к сообщениям
Вы не можете скачивать файлы