Сегодня идет свободное скачивание без начисления Download

Семья Сопрано / The Sopranos / Сезон: 4 / Серии: 1-13 из 13 (Тимоти Ван Паттен, Джон Паттерсон, Аллен Култер) [2002, Криминальнал, драма, BDRip 1080p 10bit] AVO (Д. Пучков (Goblin)) + MVO (Amedia) + MVO (Fox Crime) + MVO (НТВ) + Original

Ответить на тему
 
Автор
Сообщение

Omen ®

Стаж: 5 лет 9 месяцев

Сообщений: 184402

Торрент-статистика

Пост 07-Авг-2016 01:00

[Цитировать]

Семья Сопрано / The Sopranos
Год выпуска: 2002
Страна: США
Жанр: Криминальнал, драма
Продолжительность: 50 мин.
Перевод 1: Авторский (одноголосый закадровый) Д. Пучков (Goblin)
Перевод 2: Профессиональный (многоголосый закадровый) Amedia
Перевод 3: Профессиональный (многоголосый закадровый) Fox Crime
Перевод 4: Профессиональный (многоголосый закадровый) НТВ
Режиссёр: Тимоти Ван Паттен, Джон Паттерсон, Аллен Култер
В ролях: Эди Фалько, Джэми-Линн Сиглер, Майкл Империоли, Лоррейн Бракко, Тони Сирико, Роберт Айлер, Стив Ван Зандт, Доминик Кьянезе, Аида Туртурро
Описание: Повседневная жизнь современного Крестного отца: его мысли — стремительны, действия — решительны, а юмор — черен. Мафиозный босс Северного Джерси Тони Сопрано успешно справляется с проблемами «Семьи».
Сэмпл: http://sendfile.su/1140298
Качество: BDRip 1080p 10bit
Контейнер: MKV
Видео: x264-10bit, 1920x1080, 16:9, 23.976 fps, ~6.0 Mbps
Аудио 1: Russian - Д. Пучков - Goblin, DTS\5.1\48.0KHz\1 509Kbps
Аудио 2: Russian - Amedia, AC3\5.1\48.0KHz\384 Kbps
Аудио 3: Russian - Fox Crime, AC3\2.0\48.0 KHz\192Kbps
Аудио 4: Russian - НТВ, AC3\5.1\48.0 KHz\384Kbps
Аудио 5: English - Original, AAC\5.1\48.0 KHz
Субтитры: softsub (SRT) 1: Rus - Д. Пучков (Goblin), 2: Rus - Amedia, 3: Eng
Постер

Список серий

1: For All Debts Public and Private
2: No Show
3: Christopher
4: The Weight
5: Pie-o-My
6: Everybody Hurts
7: Watching Too Much Television
8: Mergers and Acquisitions
9: Whoever Did This
10: The Strong, Silent Type
11: Calling All Cars
12: Eloise
13: Whitecaps

MediaInfo

Format : Matroska
Format version : Version 4 / Version 2
File size : 3.38 GiB
Duration : 57mn 47s
Overall bit rate : 8 377 Kbps
Encoded date : UTC 2016-06-27 17:21:08
Writing application : mkvmerge v9.2.0 ('Photograph') 64bit
Writing library : libebml v1.3.3 + libmatroska v1.4.4
Cover : Yes
Attachments : Cover.jpg
Video
ID : 1
Format : AVC
Format/Info : Advanced Video Codec
Format profile : High 4:4:4 Predictive@L4.1
Format settings, CABAC : Yes
Format settings, ReFrames : 4 frames
Codec ID : V_MPEG4/ISO/AVC
Duration : 57mn 47s
Bit rate : 7 109 Kbps
Width : 1 920 pixels
Height : 1 080 pixels
Display aspect ratio : 16:9
Frame rate mode : Constant
Frame rate : 23.976 (24000/1001) fps
Color space : YUV
Chroma subsampling : 4:4:4
Bit depth : 10 bits
Scan type : Progressive
Bits/(Pixel*Frame) : 0.143
Stream size : 2.87 GiB (85%)
Writing library : x264 core 148 r2665 a01e339
Encoding settings : cabac=1 / ref=4 / deblock=1:-1:-1 / analyse=0x3:0x133 / me=umh / subme=10 / psy=1 / psy_rd=1.00:0.20 / mixed_ref=1 / me_range=24 / chroma_me=1 / trellis=2 / 8x8dct=1 / cqm=0 / deadzone=21,11 / fast_pskip=0 / chroma_qp_offset=3 / threads=4 / lookahead_threads=1 / sliced_threads=0 / nr=0 / decimate=1 / interlaced=0 / bluray_compat=0 / constrained_intra=0 / bframes=6 / b_pyramid=2 / b_adapt=2 / b_bias=0 / direct=3 / weightb=1 / open_gop=0 / weightp=2 / keyint=250 / keyint_min=23 / scenecut=40 / intra_refresh=0 / rc_lookahead=60 / rc=crf / mbtree=1 / crf=20.0 / qcomp=0.60 / qpmin=0 / qpmax=81 / qpstep=4 / ip_ratio=1.40 / aq=1:1.00
Language : English
Default : Yes
Forced : No
Audio #1
ID : 2
Format : AC-3
Format/Info : Audio Coding 3
Mode extension : CM (complete main)
Format settings, Endianness : Big
Codec ID : A_AC3
Duration : 57mn 47s
Bit rate mode : Constant
Bit rate : 192 Kbps
Channel(s) : 2 channels
Channel positions : Front: L R
Sampling rate : 48.0 KHz
Frame rate : 31.250 fps (1536 spf)
Compression mode : Lossy
Stream size : 79.4 MiB (2%)
Title : Goblin
Language : Russian
Default : Yes
Forced : No
Audio #2
ID : 3
Format : AC-3
Format/Info : Audio Coding 3
Mode extension : CM (complete main)
Format settings, Endianness : Big
Codec ID : A_AC3
Duration : 57mn 47s
Bit rate mode : Constant
Bit rate : 384 Kbps
Channel(s) : 6 channels
Channel positions : Front: L C R, Side: L R, LFE
Sampling rate : 48.0 KHz
Frame rate : 31.250 fps (1536 spf)
Compression mode : Lossy
Stream size : 159 MiB (5%)
Title : Amedia
Language : Russian
Default : No
Forced : No
Audio #3
ID : 4
Format : AC-3
Format/Info : Audio Coding 3
Mode extension : CM (complete main)
Format settings, Endianness : Big
Codec ID : A_AC3
Duration : 57mn 45s
Bit rate mode : Constant
Bit rate : 192 Kbps
Channel(s) : 2 channels
Channel positions : Front: L R
Sampling rate : 48.0 KHz
Frame rate : 31.250 fps (1536 spf)
Compression mode : Lossy
Stream size : 79.3 MiB (2%)
Title : Fox crime
Language : Russian
Default : No
Forced : No
Audio #4
ID : 5
Format : AC-3
Format/Info : Audio Coding 3
Mode extension : CM (complete main)
Format settings, Endianness : Big
Codec ID : A_AC3
Duration : 57mn 46s
Bit rate mode : Constant
Bit rate : 192 Kbps
Channel(s) : 2 channels
Channel positions : Front: L R
Sampling rate : 48.0 KHz
Frame rate : 31.250 fps (1536 spf)
Compression mode : Lossy
Stream size : 79.3 MiB (2%)
Title : NTV
Language : Russian
Default : No
Forced : No
Audio #5
ID : 6
Format : AAC
Format/Info : Advanced Audio Codec
Format profile : LC
Codec ID : A_AAC
Duration : 57mn 47s
Bit rate : 304 Kbps
Channel(s) : 6 channels
Channel positions : Front: L C R, Side: L R, LFE
Sampling rate : 48.0 KHz
Frame rate : 46.875 fps (1024 spf)
Compression mode : Lossy
Delay relative to video : 9ms
Stream size : 126 MiB (4%)
Title : Eng
Language : English
Default : No
Forced : No
Text #1
ID : 7
Format : UTF-8
Codec ID : S_TEXT/UTF8
Codec ID/Info : UTF-8 Plain Text
Duration : 53mn 39s
Bit rate : 113 bps
Count of elements : 788
Stream size : 44.6 KiB (0%)
Title : Amedia
Language : Russian
Default : No
Forced : No
Text #2
ID : 8
Format : UTF-8
Codec ID : S_TEXT/UTF8
Codec ID/Info : UTF-8 Plain Text
Duration : 53mn 38s
Bit rate : 73 bps
Count of elements : 878
Stream size : 29.0 KiB (0%)
Title : Eng
Language : English
Default : No
Forced : No
Menu
00:00:00.000 : en:00:00:00.000
00:01:39.725 : en:00:01:39.725
00:09:45.460 : en:00:09:45.460
00:19:38.094 : en:00:19:38.094
00:29:24.846 : en:00:29:24.846
00:38:52.997 : en:00:38:52.997
00:49:40.019 : en:00:49:40.019
00:56:05.362 : en:00:56:05.362

Скриншоты

Вне форума [Профиль] [ЛС]
Показать сообщения:    
Ответить на тему

Текущее время: Сегодня 08:02

Часовой пояс: GMT + 3



Вы не можете начинать темы
Вы не можете отвечать на сообщения
Вы не можете редактировать свои сообщения
Вы не можете удалять свои сообщения
Вы не можете голосовать в опросах
Вы не можете прикреплять файлы к сообщениям
Вы не можете скачивать файлы