Сегодня идет свободное скачивание без начисления Download

Супер весёлый вечер / Super Fun Night / Сезон: 1 / Серии: 1-17 из 17 (Джон Ригги) [2013, комедия, WEB-DL 1080p] MVO (ТНТ) + Original + Subs (Eng)

Ответить на тему
 
Автор
Сообщение

Omen ®

Стаж: 5 лет 10 месяцев

Сообщений: 184329

Торрент-статистика

Пост 01-Авг-2016 01:00

[Цитировать]

Супер весёлый вечер / Super Fun Night
Год выпуска: 2013
Страна: США
Жанр: комедия
Продолжительность: ~22 мин.
Перевод: Профессиональный (многоголосый закадровый) /ТНТ/
Запись: #Antisnl# , Beer kolesik Drinkers
Сведение: Beer kolesik Drinkers

Создатель: Джон Ригги
В ролях: Ребел Уилсон, Лорен Эш, Кевин Бишоп, Лиза Лапира, Дэна Ли, Дебора Бэйкер мл., Анна Кэмп, Коуди Кеннеди, Кристиан Элайджа Майо, Эди Паттерсон и др.
Описание: Три подруги, Кимми, Хелен-Элис и Марика, дружат уже долгие годы. И чтобы ни приключилось в их жизни, они всегда поддержат друг друга и обменяются мнениями и советами. У девушек есть давняя традиция, которую они стараются никогда не нарушать — на протяжении последних 13 лет они собираются каждую пятницу и проводят это время вместе, общаясь и развлекаясь. Но события, происходящие в жизни помощника адвоката Кимми, ставят под угрозу срыва вошедшего в привычку пятничного развлечения…
Сэмпл: http://sendfile.su/1254223
Качество: WEB-DL 1080p
Контейнер: MKV
Видео: H.264, 1916x1080 (16:9), 23.976 fps, 5189 kbps, 0.105 bit/pixel
Аудио Rus: Russian, AC3, 48 kHz, 2 ch, 192 kbps
Аудио Eng: English, AC3, 48 kHz, 6 ch, 384 kbps
Субтитры: softsub Английские

Список серий

01 - Anything for Love
02 - Three Men and a Boubier
03 - Chick or Treat
04 - Engagement Party
05 - Go With Glorg
06 - The Love Lioness
07 - The Set Up
08 - Pilot
09 - Merry Super Fun Christmas
10 - Li'l Big Kim
11 - Dinner Party
12 - Hostile Makeover
13 - Let the Games Begin
14 - Lucindervention
15 - Cookie Prom
16 - Lesbihonest
17 - ...Till the Fat Lady Sings

MediaInfo

General
Unique ID : 175616108129807860383428986933079523811 (0x841E6EA07DA1359786EAF7717E9941E3)
Complete name : D:\Раздачи\Super.Fun.Night.S01.1080p.WEB-DL.DD5.1.H.264.Rus.Eng-BkD\Super.Fun.Night.S01E01.Anything.for.Love.1080p.WEB-DL.DD5.1.H.264.Rus.Eng-BkD.mkv
Format : Matroska
Format version : Version 4 / Version 2
File size : 910 MiB
Duration : 21mn 37s
Overall bit rate : 5 882 Kbps
Movie name : by Beer kolesik Drinkers for /*spam*/
Encoded date : UTC 2016-06-15 15:25:04
Writing application : mkvmerge v8.2.0 ('World of Adventure') 32bit
Writing library : libebml v1.3.1 + libmatroska v1.4.2
DURATION : 00:21:37.408000000
NUMBER_OF_FRAMES : 40544
NUMBER_OF_BYTES : 31137792
_STATISTICS_WRITING_APP : mkvmerge v8.2.0 ('World of Adventure') 32bit
_STATISTICS_WRITING_DATE_UT : 2016-06-15 15:25:04
_STATISTICS_TAGS : BPS DURATION NUMBER_OF_FRAMES NUMBER_OF_BYTES
Video
ID : 1
Format : AVC
Format/Info : Advanced Video Codec
Format profile : High@L4
Format settings, CABAC : Yes
Format settings, ReFrames : 4 frames
Codec ID : V_MPEG4/ISO/AVC
Duration : 21mn 37s
Bit rate : 5 189 Kbps
Width : 1 916 pixels
Height : 1 080 pixels
Display aspect ratio : 16:9
Frame rate mode : Constant
Frame rate : 23.976 fps
Color space : YUV
Chroma subsampling : 4:2:0
Bit depth : 8 bits
Scan type : Progressive
Bits/(Pixel*Frame) : 0.105
Stream size : 802 MiB (88%)
Language : English
Default : Yes
Forced : No
Color range : Limited
Color primaries : BT.709
Transfer characteristics : BT.709
Matrix coefficients : BT.709
Audio #1
ID : 2
Format : AC-3
Format/Info : Audio Coding 3
Mode extension : CM (complete main)
Format settings, Endianness : Big
Codec ID : A_AC3
Duration : 21mn 37s
Bit rate mode : Constant
Bit rate : 192 Kbps
Channel(s) : 2 channels
Channel positions : Front: L R
Sampling rate : 48.0 KHz
Compression mode : Lossy
Stream size : 29.7 MiB (3%)
Title : ТНТ
Language : Russian
Default : Yes
Forced : No
Audio #2
ID : 3
Format : AC-3
Format/Info : Audio Coding 3
Mode extension : CM (complete main)
Format settings, Endianness : Big
Codec ID : A_AC3
Duration : 21mn 37s
Bit rate mode : Constant
Bit rate : 384 Kbps
Channel(s) : 6 channels
Channel positions : Front: L C R, Side: L R, LFE
Sampling rate : 48.0 KHz
Compression mode : Lossy
Stream size : 59.4 MiB (7%)
Language : English
Default : No
Forced : No
Text
ID : 4
Format : UTF-8
Codec ID : S_TEXT/UTF8
Codec ID/Info : UTF-8 Plain Text
Language : English
Default : No
Forced : No

Скриншоты

Вне форума [Профиль] [ЛС]
Похожие темы
Форум Тема Автор Торрент Отв. Посл. сообщение
./templates/default/images/folder_dl.gif Обучающее видео Элержон Кимсанов | Супер Premiere Pro (2016) PCRec [H.264] moralis
1 | 0

0 | 704

31

2016-02-01 21:17
moralis Последнее
./templates/default/images/folder_dl.gif Обучающее видео Артем Лукьянов и др. | Супер After Effects, Супер After Effects 2. Полное собрание (2013-2017) PCRec Omen
1 | 0

0 | 883

15

2016-03-09 18:11
Omen Последнее
./templates/default/images/folder_dl.gif Мультимедийные приложения Александр Заботкин | Супер Premier Pro 2 (2017) [unpacked] }{@R0N
1 | 0

0 | 22

12

2017-12-24 19:57
}{@R0N Последнее
Показать сообщения:    
Ответить на тему

Текущее время: Сегодня 11:05

Часовой пояс: GMT + 3



Вы не можете начинать темы
Вы не можете отвечать на сообщения
Вы не можете редактировать свои сообщения
Вы не можете удалять свои сообщения
Вы не можете голосовать в опросах
Вы не можете прикреплять файлы к сообщениям
Вы не можете скачивать файлы