Сегодня идет свободное скачивание без начисления Download

Ки энд Пил / Key and Peele / Сезон: 4 / Серия: 5 из 11 (Питер Атенсио) [2014, Комедия, скетч, WEB-DLRip] DVO (Кураж-Бамбей) + Original

Ответить на тему
 
Автор
Сообщение

Omen ®

Стаж: 6 лет 1 месяц

Сообщений: 184308

Торрент-статистика

Пост 30-Июл-2016 01:00

[Цитировать]

Ки энд Пил / Key and Peele- Год выпуска: 2014
Страна: США
Жанр: Комедия, скетч
Продолжительность: ~00:22:00
Перевод: Профессиональный (двухголосый закадровый) Кураж-Бамбей по заказу телеканала Paramount Comedy
Режиссёр: Питер Атенсио
В ролях: Кигэн Майкл Ки, Джордан Пил, Джордан Блэк, Роб Делани, Колтон Данн, Джошуа Фанк, Джес Уайтакер, Рон Артест, Марк Мозес, Мэл Кауэн
Описание: Кей и Пили являются участниками американских скетч комедий и тв шоу. Каждый эпизод состоит из предварителього живого выступления на сцене, и скетча (короткий видеоэпизод).
Скетчи охватывают различные социальные темы, зачастую затрагивая афроамериканскую культуру и межрасовые отношения.
В ролях Киган Майкл Кей и Джордан Пили, бывшие актеры MAD TV.
Доп. информация:
Звук предоставил: Beer kolesik Drinkers и #Antisnl#
Подготовка видео: TaLi4
Что-то там с аудио делал: "халтурщик" TaLi4
Сэмпл: http://multi-up.com/1111880 | https://cloud.mail.ru/public/8fg3/mvaWVC1g8
Качество: WEB-DLRip
Формат: AVI
Видео: 720x400 (1.80:1), 23.976 fps, XviD build 64 ~1266 kbps avg, 0.18 bit/pixel
Аудио #1: 48 kHz, MPEG Layer 3, 2 ch, ~128.00 kbps avg | Кураж-Бамбей |
Аудио #2: 48 kHz, MPEG Layer 3, 2 ch, ~128.00 kbps avg | Оригинал |
Субтитры: отсутствуют

MediaInfo

Общее
Полное имя : C:\Users\Администратор\Desktop\Раздачи\Key and Peele Season 4 ParamountComedy\key.and.peele.s04e05.web-dlrip.rus.eng.paramount.comedy.avi
Формат : AVI
Формат/Информация : Audio Video Interleave
Размер файла : 236 Мбайт
Продолжительность : 21 м.
Общий поток : 1537 Кбит/сек
Программа кодирования : VirtualDubMod 1.5.10.3 | www.virtualdub-fr.org || (build 2550/release)
Библиотека кодирования : VirtualDubMod build 2550/release
Видео
Идентификатор : 0
Формат : MPEG-4 Visual
Профиль формата : Advanced Simple@L5
Параметр BVOP формата : 2
Параметр QPel формата : Нет
Параметр GMC формата : Без точки перехода
Параметр матрицы формата : Default (H.263)
Идентификатор кодека : XVID
Идентификатор кодека/Подсказка : XviD
Продолжительность : 21 м.
Битрейт : 1267 Кбит/сек
Ширина : 720 пикселей
Высота : 400 пикселей
Соотношение сторон : 16:9
Частота кадров : 23,976 (23976/1000) кадра/сек
Цветовое пространство : YUV
Субдискретизация насыщенности : 4:2:0
Битовая глубина : 8 бит
Тип развёртки : Прогрессивная
Метод сжатия : С потерями
Бит/(Пиксели*Кадры) : 0.184
Размер потока : 194 Мбайт (82%)
Библиотека кодирования : XviD 64
Аудио #1
Идентификатор : 1
Формат : MPEG Audio
Версия формата : Version 1
Профиль формата : Layer 3
Режим : Joint stereo
Расширение режима : MS Stereo
Идентификатор кодека : 55
Идентификатор кодека/Подсказка : MP3
Продолжительность : 21 м.
Вид битрейта : Постоянный
Битрейт : 128 Кбит/сек
Каналы : 2 канала
Частота : 48,0 КГц
Метод сжатия : С потерями
Размер потока : 19,6 Мбайт (8%)
Выравнивание : Соединение по промежуткам
Продолжительность промежутка : 42 мс. (1,00 видеокадр)
Время предзагрузки промежутка : 504 мс.
Аудио #2
Идентификатор : 2
Формат : MPEG Audio
Версия формата : Version 1
Профиль формата : Layer 3
Режим : Joint stereo
Расширение режима : MS Stereo
Идентификатор кодека : 55
Идентификатор кодека/Подсказка : MP3
Продолжительность : 21 м.
Вид битрейта : Постоянный
Битрейт : 128 Кбит/сек
Каналы : 2 канала
Частота : 48,0 КГц
Метод сжатия : С потерями
Размер потока : 19,6 Мбайт (8%)
Выравнивание : Соединение по промежуткам
Продолжительность промежутка : 42 мс. (1,00 видеокадр)
Время предзагрузки промежутка : 504 мс.
Библиотека кодирования : LAME3.99r
Настройки программы : -m j -V 4 -q 0 -lowpass 17 -b 128

Скриншоты

Вне форума [Профиль] [ЛС]
Показать сообщения:    
Ответить на тему

Текущее время: Сегодня 23:45

Часовой пояс: GMT + 3



Вы не можете начинать темы
Вы не можете отвечать на сообщения
Вы не можете редактировать свои сообщения
Вы не можете удалять свои сообщения
Вы не можете голосовать в опросах
Вы не можете прикреплять файлы к сообщениям
Вы не можете скачивать файлы