Сегодня идет свободное скачивание без начисления Download

Прекрасные господа из Буа-Доре / Les beaux messieurs de Bois-Dore / Серии: 1-5 из 5 (Бернард Бордери / Bernard Borderie) [1976, Франция, приключения, исторический, DVDRip] MVO (Cinema Prestige) + DVO (Фортуна Фильм) + Original Fre + Rus Sub

Ответить на тему
 
Автор
Сообщение

Omen ®

Стаж: 5 лет 10 месяцев

Сообщений: 184329

Торрент-статистика

Пост 29-Июл-2016 01:00

[Цитировать]

Прекрасные господа из Буа-Доре / Les beaux messieurs de Bois-Doré
Год выпуска: 1976
Страна: Франция
Жанр: приключения, исторический
Продолжительность: 01:27:44 + 01:32:09 + 01:34:38 + 01:22:19 + 01:19:30
Перевод: Профессиональный (многоголосый закадровый) - Cinema Prestige
Перевод: Профессиональный (двухголосый закадровый) - Фортуна Фильм
+ вставки одноголосого (lehachuev) на вырезанные моменты
Режиссёр: Бернард Бордери / Bernard Borderie
В ролях: Жорж Маршаль, Иоланда Фоллио, Мишель Альбертини, Мишель Кретон, Филипп Лемэр, Франсуа Местре, Жан-Франсуа Порон, Марион Жаме
Описание: Экранизация романа Жорж Санд.
Франция, 20-е годы XVII века. Маркиз де Буа Доре, старый соратник Генриха IV, отошедший от политических и военных дел после смерти короля, живет в своем замке и наслаждается жизнью. Но маркиз не тот человек, который долго может прожить спокойно. Тайны, интриги, приключения, дуэли, любовные переживания и все это сдобрено хорошей порцией юмора. Настоящий фильм жанра «плаща и шпаги».

Сэмпл--Большое спасибо Gorushka и Lenka - за русскую звуковую дорожку Фортуна Фильм, VeraM - за перевод вырезанного из ТВ-версии куска (ок. 55 минут), lehachuev - за озвучивание недостающего куска!--Качество: DVDRip
Формат: AVI
Видео: 640x496 (1.29:1), 25 fps, XviD build 73 ~1978 kbps avg, 0.25 bit/pixel
Аудио: 48 kHz, AC3 Dolby Digital, 2/0 (L,R) ch, ~192 kbps - Cinema Prestige
Аудио: 48 kHz, AC3 Dolby Digital, 2/0 (L,R) ch, ~192 kbps - Фортуна Фильм
Аудио: 48 kHz, AC3 Dolby Digital, 2/0 (L,R) ch, ~192 kbps - оригинал
Субтитры: русские (Cinema Prestige)

MediaInfo

Общее
Полное имя : H:\буа доре\s01e01.avi
Формат : AVI
Формат/Информация : Audio Video Interleave
Размер файла : 1,58 Гбайт
Продолжительность : 1 ч. 27 м.
Общий поток : 2575 Кбит/сек
Программа кодирования : VirtualDubMod 1.5.10.3 | www.virtualdub-fr.org || (build 2550/release)
Библиотека кодирования : VirtualDubMod build 2550/release
Видео
Идентификатор : 0
Формат : MPEG-4 Visual
Профиль формата : Advanced Simple@L5
Параметр BVOP формата : 2
Параметр QPel формата : Нет
Параметр GMC формата : Без точки перехода
Параметр матрицы формата : Выборочная
Идентификатор кодека : XVID
Идентификатор кодека/Подсказка : XviD
Продолжительность : 1 ч. 27 м.
Битрейт : 1980 Кбит/сек
Ширина : 640 пикселей
Высота : 496 пикселей
Соотношение сторон : 1,290
Частота кадров : 25,000 кадров/сек
Цветовое пространство : YUV
Субдискретизация насыщенности : 4:2:0
Битовая глубина : 8 бит
Тип развёртки : Прогрессивная
Метод сжатия : С потерями
Бит/(Пиксели*Кадры) : 0.249
Размер потока : 1,21 Гбайт (77%)
Библиотека кодирования : XviD 73
Аудио #1
Идентификатор : 1
Формат : AC-3
Формат/Информация : Audio Coding 3
Расширение режима : CM (complete main)
Параметр Endianness формата : Big
Идентификатор кодека : 2000
Продолжительность : 1 ч. 27 м.
Вид битрейта : Постоянный
Битрейт : 192 Кбит/сек
Каналы : 2 канала
Расположение каналов : Front: L R
Частота : 48,0 КГц
Битовая глубина : 16 бит
Метод сжатия : С потерями
Размер потока : 120 Мбайт (7%)
Выравнивание : Разделение по промежуткам
Продолжительность промежутка : 40 мс. (1,00 видеокадр)
Время предзагрузки промежутка : 500 мс.
Аудио #2
Идентификатор : 2
Формат : AC-3
Формат/Информация : Audio Coding 3
Расширение режима : CM (complete main)
Параметр Endianness формата : Big
Идентификатор кодека : 2000
Продолжительность : 1 ч. 27 м.
Вид битрейта : Постоянный
Битрейт : 192 Кбит/сек
Каналы : 2 канала
Расположение каналов : Front: L R
Частота : 48,0 КГц
Битовая глубина : 16 бит
Метод сжатия : С потерями
Размер потока : 120 Мбайт (7%)
Выравнивание : Разделение по промежуткам
Продолжительность промежутка : 40 мс. (1,00 видеокадр)
Время предзагрузки промежутка : 500 мс.
Аудио #3
Идентификатор : 3
Формат : AC-3
Формат/Информация : Audio Coding 3
Расширение режима : CM (complete main)
Параметр Endianness формата : Big
Идентификатор кодека : 2000
Продолжительность : 1 ч. 27 м.
Вид битрейта : Постоянный
Битрейт : 192 Кбит/сек
Каналы : 2 канала
Расположение каналов : Front: L R
Частота : 48,0 КГц
Битовая глубина : 16 бит
Метод сжатия : С потерями
Размер потока : 120 Мбайт (7%)
Выравнивание : Разделение по промежуткам
Продолжительность промежутка : 40 мс. (1,00 видеокадр)
Время предзагрузки промежутка : 500 мс.
-
Вне форума [Профиль] [ЛС]
Показать сообщения:    
Ответить на тему

Текущее время: Сегодня 11:05

Часовой пояс: GMT + 3



Вы не можете начинать темы
Вы не можете отвечать на сообщения
Вы не можете редактировать свои сообщения
Вы не можете удалять свои сообщения
Вы не можете голосовать в опросах
Вы не можете прикреплять файлы к сообщениям
Вы не можете скачивать файлы