Сегодня идет свободное скачивание без начисления Download

Помнить всё / Незабываемое / Unforgettable / Сезон: 2 / Серии: 1-13 из 13 (Жан Де Сегонзак, Пол Холахан) [2013, драма, криминал, WEB-DLRip] Dub (ТВ3) + Original

Ответить на тему
 
Автор
Сообщение

Omen ®

Стаж: 5 лет 7 месяцев

Сообщений: 185412

Торрент-статистика

Пост 29-Июл-2016 01:00

[Цитировать]

Помнить всё / Незабываемое / Unforgettable
Год выпуска: 2013
Страна: США
Жанр: драма, криминал
Продолжительность: 00:43:00
Перевод: Профессиональный (дублированный) ТВ3
Режиссёр: Жан Де Сегонзак, Пол Холахан, Питер Уэрнер
В ролях: Поппи Монтгомери, Дилан Уолш, Майкл Гэстон, Кевин О. Ранкин, Дая Вайдя, Майкл Дж. Бёрг, Элизер Мейер и др.
Описание: Кэрри Уэллс – загадочный бывший детектив полиции с редким заболеванием, из-за которого её память стала настолько безупречной, что любое место, любой разговор, любой момент радости или горя навсегда остается в её воспоминаниях. Она просто не может ничего забыть. Кроме одного – деталей убийства её сестры, которые помогли бы раскрыть это давнишнее дело. Кэрри пытается жить новой жизнью, но неожиданно встречает своего бывшего бойфренда и напарника, детектива NYPD Эла Бёрнса, во время консультирования по делу об убийстве. В его команду входят детектив Майк Костелло, правая рука Эла; детектив Роу Сондерс, самый младший член группы; и детектив Нина Инара, дерзкая и знакомая с улицей полицейский. Возвращение к работе после перерыва оказалось для Кэрри как нельзя кстати. Несмотря на противоречивые чувства к Элу, она решила на постоянной основе присоединиться к его команде и помогать раскрывать убийства, в том числе и нераскрытое дело её сестры. Все, что ей для этого нужно – вспомнить.
Сэмпл: http://multi-up.com/1111741
Качество: WEB-DLRip
Формат: AVI
Видео: XviD, 720x400 (16/9), 23.976 fps, 1639 Kbps (0.237 bit/pixel)
Аудио: AC3, 48 KHz, 2 ch, 192 Kbps - русский
Аудио 2: AC3, 48 KHz, 2 ch, 192 Kbps - английский
Субтитры: нет

MediaInfo

Общее
Полное имя : K:\Unforgettable.S02E01.WEB-DL.720p.SET.avi
Формат : AVI
Формат/Информация : Audio Video Interleave
Размер файла : 634 Мбайт
Продолжительность : 43 м.
Общий поток : 2037 Кбит/сек
Название фильма : Помнить все (Незабываемое). Сезон 2 / Unforgettable. Season 2 (2013)
Программа кодирования : VirtualDubMod 1.5.10.2 (build 2540/release)
Библиотека кодирования : VirtualDubMod build 2540/release
Правообладатель : miha2154
Видео
Идентификатор : 0
Формат : MPEG-4 Visual
Профиль формата : Advanced Simple@L5
Параметр BVOP формата : 1
Параметр QPel формата : Нет
Параметр GMC формата : Без точки перехода
Параметр матрицы формата : Выборочная
Идентификатор кодека : DX50
Идентификатор кодека/Подсказка : DivX 5
Продолжительность : 43 м.
Битрейт : 1639 Кбит/сек
Ширина : 720 пикселей
Высота : 400 пикселей
Соотношение сторон : 16:9
Частота кадров : 23,976 кадра/сек
Цветовое пространство : YUV
Субдискретизация насыщенности : 4:2:0
Битовая глубина : 8 бит
Тип развёртки : Прогрессивная
Метод сжатия : С потерями
Бит/(Пиксели*Кадры) : 0.237
Размер потока : 510 Мбайт (80%)
Библиотека кодирования : XviD 65
Аудио #1
Идентификатор : 1
Формат : AC-3
Формат/Информация : Audio Coding 3
Расширение режима : CM (complete main)
Параметр Endianness формата : Big
Идентификатор кодека : 2000
Продолжительность : 43 м.
Вид битрейта : Постоянный
Битрейт : 192 Кбит/сек
Каналы : 2 канала
Расположение каналов : Front: L R
Частота : 48,0 КГц
Битовая глубина : 16 бит
Метод сжатия : С потерями
Размер потока : 59,8 Мбайт (9%)
Выравнивание : Разделение по промежуткам
Продолжительность промежутка : 42 мс. (1,00 видеокадр)
Время предзагрузки промежутка : 500 мс.
Заголовок : Профессиональный (полное дублирование) ТВ3
Аудио #2
Идентификатор : 2
Формат : AC-3
Формат/Информация : Audio Coding 3
Расширение режима : CM (complete main)
Параметр Endianness формата : Big
Идентификатор кодека : 2000
Продолжительность : 43 м.
Вид битрейта : Постоянный
Битрейт : 192 Кбит/сек
Каналы : 2 канала
Расположение каналов : Front: L R
Частота : 48,0 КГц
Битовая глубина : 16 бит
Метод сжатия : С потерями
Размер потока : 59,8 Мбайт (9%)
Выравнивание : Разделение по промежуткам
Продолжительность промежутка : 42 мс. (1,00 видеокадр)
Время предзагрузки промежутка : 500 мс.
Заголовок : Английский

Скриншоты


Вне форума [Профиль] [ЛС]
Показать сообщения:    
Ответить на тему

Текущее время: Сегодня 20:48

Часовой пояс: GMT + 3



Вы не можете начинать темы
Вы не можете отвечать на сообщения
Вы не можете редактировать свои сообщения
Вы не можете удалять свои сообщения
Вы не можете голосовать в опросах
Вы не можете прикреплять файлы к сообщениям
Вы не можете скачивать файлы