Сегодня идет свободное скачивание без начисления Download

Странная парочка / The Odd Couple / Сезон: 2 / Серии: 1-4 (13) (Фил Льюис, Марк Сендроуски) [2016, комедия, HDTVRip 1080p] MVO (FocusStudio)

Ответить на тему
 
Автор
Сообщение

Omen ®

Стаж: 5 лет 6 месяцев

Сообщений: 186946

Торрент-статистика

Пост 27-Июл-2016 01:00

[Цитировать]

-Странная парочка / The Odd Couple
2 сезон, 1-4 серии
- Год выпуска: 2016
Страна: США
Жанр: комедия
Продолжительность: 4 х 22 мин
Перевод: профессиональный многоголосый закадровый (FocusStudio)-Режиссёры: Фил Льюис, Марк Сендроуски, Энди Кэдифф-В ролях: Мэттью Перри, Томас Леннон, Иветт Николь Браун, Линдсей Слоун, Уенделл Пирс, Джофф Стульц, Лесли Бибб, Дэйв Фоли...-Описание: Сериал «Странная парочка» рассказывает о жизни двух разведённых приятелей под одной крышей. Фотограф Феликс и спортивный журналист Оскар - два лучших друга, которым приходиться делить одно жилье на двоих, после того как Феликса выставляет из дома его жена Эшли. Совместный быт мужчин средних лет, годами оттачивающих привычки – штука непростая. Приходится многому учиться с нуля и находить точки соприкосновения. Хорошо, что есть очаровательные соседки и ворчливые друзья, способные в нужный момент сгладить углы и вмешаться в процесс приспособления…- -Качество: HDTVRip 1080p
Формат: MKV
Видео: AVC, 1920x1080 (16:9), 23,976 fps, ~7700 kbps
Аудио Rus: AC3, 48 kHz, 6 ch, 384 kbps
Аудио Eng: AC3, 48 kHz, 6 ch, 384 kbps
Субтитры: отсутствуют-

Скриншоты

MediaInfo

Format : Matroska
Format version : Version 4 / Version 2
File size : 1.30 GiB
Duration : 21mn 31s
Overall bit rate : 8 678 Kbps
Movie name : Odd Couple 2x1 @ FocusStudio
Encoded date : UTC 2016-07-25 15:36:41
Writing application : mkvmerge v8.3.0 ('Over the Horizon') 64bit
Writing library : libebml v1.3.1 + libmatroska v1.4.2
Video
ID : 1
Format : AVC
Format/Info : Advanced Video Codec
Format profile : High@L4.1
Format settings, CABAC : Yes
Format settings, ReFrames : 4 frames
Codec ID : V_MPEG4/ISO/AVC
Duration : 21mn 31s
Bit rate : 7 737 Kbps
Width : 1 920 pixels
Height : 1 080 pixels
Display aspect ratio : 16:9
Frame rate mode : Constant
Frame rate : 23.976 (24000/1001) fps
Color space : YUV
Chroma subsampling : 4:2:0
Bit depth : 8 bits
Scan type : Progressive
Bits/(Pixel*Frame) : 0.156
Stream size : 1.16 GiB (89%)
Writing library : x264 core 148 r2665 a01e339
Encoding settings : cabac=1 / ref=4 / deblock=1:-3:-3 / analyse=0x3:0x133 / me=umh / subme=11 / psy=1 / psy_rd=1.00:0.00 / mixed_ref=1 / me_range=32 / chroma_me=1 / trellis=2 / 8x8dct=1 / cqm=0 / deadzone=21,11 / fast_pskip=0 / chroma_qp_offset=-2 / threads=16 / lookahead_threads=1 / sliced_threads=0 / nr=0 / decimate=1 / interlaced=0 / bluray_compat=0 / constrained_intra=0 / bframes=5 / b_pyramid=2 / b_adapt=2 / b_bias=0 / direct=3 / weightb=1 / open_gop=0 / weightp=2 / keyint=250 / keyint_min=23 / scenecut=40 / intra_refresh=0 / rc_lookahead=60 / rc=crf / mbtree=1 / crf=17.0 / qcomp=0.60 / qpmin=0 / qpmax=69 / qpstep=4 / ip_ratio=1.40 / aq=1:1.00
Language : English
Default : Yes
Forced : No
Color range : Limited
Matrix coefficients : BT.709
Audio #1
ID : 2
Format : AC-3
Format/Info : Audio Coding 3
Mode extension : CM (complete main)
Format settings, Endianness : Big
Codec ID : A_AC3
Duration : 21mn 31s
Bit rate mode : Constant
Bit rate : 384 Kbps
Channel(s) : 6 channels
Channel positions : Front: L C R, Side: L R, LFE
Sampling rate : 48.0 KHz
Frame rate : 31.250 fps (1536 spf)
Compression mode : Lossy
Stream size : 59.1 MiB (4%)
Title : MVO FocusStudio
Language : Russian
Default : Yes
Forced : No
Audio #2
ID : 3
Format : AC-3
Format/Info : Audio Coding 3
Mode extension : CM (complete main)
Format settings, Endianness : Big
Codec ID : A_AC3
Duration : 21mn 31s
Bit rate mode : Constant
Bit rate : 384 Kbps
Channel(s) : 6 channels
Channel positions : Front: L C R, Side: L R, LFE
Sampling rate : 48.0 KHz
Frame rate : 31.250 fps (1536 spf)
Compression mode : Lossy
Stream size : 59.1 MiB (4%)
Language : English
Default : No
Forced : No
-
Вне форума [Профиль] [ЛС]
Похожие темы
Форум Тема Автор Торрент Отв. Посл. сообщение
./templates/default/images/folder_dl.gif Обучающее видео [Advanced Training] Курс Cisco TSHOOT 2.0 - Поиск и устранение неисправностей в сетях Cisco (Troubleshooting and Maintaining Cisco IP Networks) [2014, RUS] Omen
2 | 0

0 | 2351

261

2015-05-16 12:00
Omen Последнее
./templates/default/images/folder_dl.gif Обучающее видео Николай Ягодкин | Техника запоминания 100 иностранных слов в час (2013) DVDRip [H.264] Omen
1 | 0

0 | 2532

37

2017-01-14 01:00
Omen Последнее
Показать сообщения:    
Ответить на тему

Текущее время: Сегодня 14:25

Часовой пояс: GMT + 3



Вы не можете начинать темы
Вы не можете отвечать на сообщения
Вы не можете редактировать свои сообщения
Вы не можете удалять свои сообщения
Вы не можете голосовать в опросах
Вы не можете прикреплять файлы к сообщениям
Вы не можете скачивать файлы