Сегодня идет свободное скачивание без начисления Download

Подозреваемый / В поле зрения / Person of Interest / Сезон: 5 / Серии: 1-13 из 13 (Ричард Дж. Льюис, Фред Туа) [2016, Триллер, боевик, драма, детектив, BDRip 720p] Original + (Rus, Eng) Subs

Ответить на тему
 
Автор
Сообщение

Omen ®

Стаж: 5 лет 10 месяцев

Сообщений: 184329

Торрент-статистика

Пост 26-Июл-2016 01:01

[Цитировать]

Год выпуска: 2016
Страна: США
Жанр: Триллер, боевик, драма, детектив
Продолжительность: ~ 00:45:00
Перевод: Субтитры — Michaelemerson
Режиссёр: Ричард Дж. Льюис, Дэвид Семел
В ролях: Джеймс Кэвизел, Майкл Эмерсон, Кевин Чэпмен, Эми Акер, Сара Шахи, Энрико Колантони и другие.
Описание: Криминальный триллер о предполагаемо погибшем бывшем агенте ЦРУ Ризе, который объединяется с таинственным миллионером чтобы предотвращать преступления. Подготовка Риза в проведении операций под прикрытием привлекает внимание миллионера Финча, гения-программиста, который изобрел программу, позволяющую предсказывать преступные склонности людей на базе анализа поведения. Используя последние достижения техники, эти двое часто преступают закон, используя навыки Риза и бесконечное богатство Финча, и останавливают преступников еще до совершения преступления. Действия Риза привлекают к себе внимание детектива Картер из отдела убийств и полицейского Фуско, которого Риз использует в своих целях. Риз и Финч понимают, что правильный человек с правильной информацией в нужное время и в нужном месте может изменить все.
Доп. информация: Энкод: Re-L Mayer
Сравнение с оригиналом:
http://screenshotcomparison.com/comparison/179613
http://screenshotcomparison.com/comparison/179612
http://screenshotcomparison.com/comparison/179615
http://screenshotcomparison.com/comparison/179611
Семпл: Скачать | КиноПоиск: 7.9 | IMDB: 8.5
Качество: BDRip 720p
Контейнер: MKV
Видео: H.264 / AVC, ~ 4200-6500 Kbps / 1280x720p / 23.976 fps / Level 4.1;
Аудио: DTS 5.1, 48000Hz, 6 channels, ~ 1509.00 kbps avg |Original|.
Субтитры: Русские — Michaelemerson. Английские.

Список серий

01. Синий экран смерти / B.S.O.D.;
02. Неразбериха / SNAFU;
03. По правде говоря / Truth Be Told;
04. 6,741 / 6,741;
05. ШотСикер / ShotSeeker;
06. Идеальная пара / A More Perfect Union;
07. Сеанс двусторонней радиосвязи / QSO;
08. Реассортация / Reassortment;
09. Вполголоса / Sotto Voce;
10. День, когда мир ушёл / The Day the World Went Away;
11. Синекдоха / Synecdoche;
12. .exe / .exe;
13. Код завершения / Return 0.

MediaInfo

Format : Matroska
Format version : Version 4 / Version 2
File size : 2.15 GiB
Duration : 43mn 48s
Overall bit rate : 7 020 Kbps
Encoded date : UTC 2016-07-25 20:23:14
Writing application : mkvmerge v8.2.0 ('World of Adventure') 64bit
Writing library : libebml v1.3.1 + libmatroska v1.4.2
DURATION : 00:43:42.561000000
NUMBER_OF_FRAMES : 632
NUMBER_OF_BYTES : 22800
_STATISTICS_WRITING_APP : mkvmerge v8.2.0 ('World of Adventure') 64bit
_STATISTICS_WRITING_DATE_UTC : 2016-07-25 20:23:14
_STATISTICS_TAGS : BPS DURATION NUMBER_OF_FRAMES NUMBER_OF_BYTES
Video
ID : 1
Format : AVC
Format/Info : Advanced Video Codec
Format profile : Main@L4.1
Format settings, CABAC : Yes
Format settings, ReFrames : 9 frames
Codec ID : V_MPEG4/ISO/AVC
Duration : 43mn 48s
Bit rate : 5 509 Kbps
Width : 1 280 pixels
Height : 720 pixels
Display aspect ratio : 16:9
Frame rate mode : Constant
Frame rate : 23.976 fps
Color space : YUV
Chroma subsampling : 4:2:0
Bit depth : 8 bits
Scan type : Progressive
Bits/(Pixel*Frame) : 0.249
Stream size : 1.64 GiB (77%)
Writing library : x264 core 148 r2597 e86f3a1
Encoding settings : cabac=1 / ref=9 / deblock=1:-3:-3 / analyse=0x1:0x111 / me=umh / subme=10 / psy=1 / psy_rd=1.00:0.00 / mixed_ref=1 / me_range=22 / chroma_me=1 / trellis=2 / 8x8dct=0 / cqm=0 / deadzone=21,11 / fast_pskip=0 / chroma_qp_offset=-2 / threads=12 / lookahead_threads=1 / sliced_threads=0 / slices=4 / nr=0 / decimate=0 / interlaced=0 / bluray_compat=0 / constrained_intra=0 / bframes=5 / b_pyramid=2 / b_adapt=2 / b_bias=0 / direct=3 / weightb=1 / open_gop=0 / weightp=2 / keyint=240 / keyint_min=23 / scenecut=40 / intra_refresh=0 / rc_lookahead=60 / rc=2pass / mbtree=0 / bitrate=5509 / ratetol=1.0 / qcomp=0.70 / qpmin=0 / qpmax=69 / qpstep=4 / cplxblur=20.0 / qblur=0.5 / vbv_maxrate=32000 / vbv_bufsize=32000 / nal_hrd=none / filler=0 / ip_ratio=1.20 / pb_ratio=1.15 / aq=1:0.60
Default : Yes
Forced : No
Color range : Limited
Color primaries : BT.709
Transfer characteristics : BT.709
Matrix coefficients : BT.709
Audio
ID : 2
Format : DTS
Format/Info : Digital Theater Systems
Mode : 16
Format settings, Endianness : Big
Codec ID : A_DTS
Duration : 43mn 48s
Bit rate mode : Constant
Bit rate : 1 509 Kbps
Channel(s) : 6 channels
Channel positions : Front: L C R, Side: L R, LFE
Sampling rate : 48.0 KHz
Bit depth : 16 bits
Compression mode : Lossy
Stream size : 473 MiB (21%)
Language : English
Default : Yes
Forced : No
Text #1
ID : 3
Format : UTF-8
Codec ID : S_TEXT/UTF8
Codec ID/Info : UTF-8 Plain Text
Title : michaelemerson.ru
Language : Russian
Default : No
Forced : No
Text #2
ID : 4
Format : UTF-8
Codec ID : S_TEXT/UTF8
Codec ID/Info : UTF-8 Plain Text
Language : English
Default : No
Forced : No
Menu
00:00:00.000 : :Глава 01
00:07:25.320 : :Глава 02
00:17:16.535 : :Глава 03
00:27:28.272 : :Глава 04
00:35:24.622 : :Глава 05
00:43:18.846 : :Глава 06

Скриншоты

Вне форума [Профиль] [ЛС]
Показать сообщения:    
Ответить на тему

Текущее время: Сегодня 22:25

Часовой пояс: GMT + 3



Вы не можете начинать темы
Вы не можете отвечать на сообщения
Вы не можете редактировать свои сообщения
Вы не можете удалять свои сообщения
Вы не можете голосовать в опросах
Вы не можете прикреплять файлы к сообщениям
Вы не можете скачивать файлы