Сегодня идет свободное скачивание без начисления Download

Голубая кровь / Blue Bloods / Сезон: 4 / Серии: 21-22 (22) (Greg Beeman) [2013, драма, криминал, детектив, WEBRip 720p] DVO (Kiitos)

Ответить на тему
 
Автор
Сообщение

Omen ®

Стаж: 5 лет 9 месяцев

Сообщений: 184402

Торрент-статистика

Пост 26-Июл-2016 01:00

[Цитировать]

Голубая кровь / Blue Bloods
Год выпуска: 2013
Страна: США
Жанр: драма, криминал, детектив
Продолжительность: ~42 мин
Перевод: Любительский (двухголосый закадровый) Kiitos
Перевод: ls36a, Kaliopsa, MaRum, alalpod, AleXei775, Milo_slava
Озвучивание: kiitos, Chertenok
Cведение: kiitos
Режиссёр: Greg Beeman
В ролях: Дженнифер Винер, Лен Кариу, Уилл Эстес, Бриджет Мойнэхэн, Том Селлек, Донни Уолберг, Майк Хэвок, Флекс Александр, Коллин Клинтон, Дэвид Энзуэло
Описание: 4-й сезон криминально-драматического популярного американского телесериала «Голубая кровь» (оригинальное название Blue Bloods) о семье полицейских из Нью-Йорка.
Первые два сезона получили очень высокие рейтинги и множество положительных отзывов от зрителей, а его создатели, которые также работали над сериалом «Клан Сопрано», получили две премии «Эмми». Основными персонажами сериала является семья Рейганов.
Френк Рейган — глава полиции Нью-Йорка и патриарх семейства Рейганов, которым он управляет столь же дипломатично, как управляет полицией, даже когда имеет дело с политикой, что досаждала его чрезмерно смелому отцу, Генри, когда тот был главой полиции. Источником гордости и беспокойства Френка является его старший сын, Дэнни, опытный детектив, семейный человек и ветеран войны в Ираке, который иногда прибегает к сомнительным методам для раскрытия дел.
Единственная женщина в семье, Эрин, работает помощником прокурора Нью-Йорка, мать-одиночка, которая служит компасом закона для братьев и отца. Джейми — младший из Рейганов, недавно закончил юридический Гарварда и считается «золотым ребенком» семьи. Но он решил следовать семейной традиции, и отказался от работы в престижной юридической фирме, чтобы стать копом.
Качество: WEBRip 720p
Контейнер: MKV
Видео: AVC, 1280x720 (16:9) 23.976fps 4025kbps
Аудио: RUS: Dolby AC3 48000Hz 6ch 384kbps
Субтитры: нет
Сэмпл

MediaInfo

Общее
Формат : Matroska
Версия формата : Version 4 / Version 2
Размер файла : 1,30 Гбайт
Продолжительность : 42 м.
Общий поток : 4410 Кбит/сек
Дата кодирования : UTC 2016-07-24 21:36:47
Программа кодирования : mkvmerge v8.3.0 ('Over the Horizon') 64bit
Библиотека кодирования : libebml v1.3.1 + libmatroska v1.4.2
Видео
Идентификатор : 1
Формат : AVC
Формат/Информация : Advanced Video Codec
Профиль формата : High@L3.1
Параметр CABAC формата : Нет
Параметр ReFrames формата : 2 кадра
Идентификатор кодека : V_MPEG4/ISO/AVC
Продолжительность : 42 м.
Битрейт : 4025 Кбит/сек
Ширина : 1280 пикселей
Высота : 720 пикселей
Соотношение сторон : 16:9
Режим частоты кадров : Постоянный
Частота кадров : 23,976 (23976/1000) кадра/сек
Цветовое пространство : YUV
Субдискретизация насыщенности : 4:2:0
Битовая глубина : 8 бит
Тип развёртки : Прогрессивная
Бит/(Пиксели*Кадры) : 0.182
Размер потока : 1,19 Гбайт (91%)
Язык : English
Default : Да
Forced : Нет
Color range : Limited
Основные цвета : BT.709
Характеристики трансфера : BT.709
Коэффициенты матрицы : BT.709
Аудио
Идентификатор : 2
Формат : AC-3
Формат/Информация : Audio Coding 3
Расширение режима : CM (complete main)
Параметр Endianness формата : Big
Идентификатор кодека : A_AC3
Продолжительность : 42 м.
Вид битрейта : Постоянный
Битрейт : 384 Кбит/сек
Каналы : 6 каналов
Расположение каналов : Front: L C R, Side: L R, LFE
Частота : 48,0 КГц
Частота кадров : 31,250 кадров/сек (1536 spf)
Метод сжатия : С потерями
Размер потока : 116 Мбайт (9%)
Заголовок : kiitos.tv
Язык : Russian
Default : Да
Forced : Нет

Скриншоты

Вне форума [Профиль] [ЛС]
Показать сообщения:    
Ответить на тему

Текущее время: Сегодня 00:14

Часовой пояс: GMT + 3



Вы не можете начинать темы
Вы не можете отвечать на сообщения
Вы не можете редактировать свои сообщения
Вы не можете удалять свои сообщения
Вы не можете голосовать в опросах
Вы не можете прикреплять файлы к сообщениям
Вы не можете скачивать файлы